天国と地獄
UNISON SQUARE GARDEN

EXTREME

Level: 10
BPM: 150
Notes: 799

1
口口口口 |----|
口口口口 |----|
口口口口 |----|
口口口口 |----|
2
①②口⑩ |①②③④|
③④⑪⑨ |-⑤⑥⑦|
⑨⑫⑤⑥ |⑧-⑨-|
⑬口⑦⑧ |⑩⑪⑫⑬|
3
①②口⑩ |①②③④|
③④⑪⑨ |-⑤⑥⑦|
⑨⑫⑤⑥ |⑧-⑨-|
⑬口⑦⑧ |⑩⑪⑫⑬|
4
②②⑥⑥ |①②-③|
①口口⑤ |④-⑤⑥|
口口④④
口口口③

⑩⑩口口
口⑨口口
⑧⑧口口 |-⑦⑧-|
口⑦⑪口 |⑨⑩-⑪|
5
口口③③ |①-②③|
口口②口 |-④⑤-|
⑤⑤①①
④口口口

⑦⑦⑨⑨
⑥口口口
口口口口 |⑥⑦--|
口⑧口⑧ |⑧-⑨-|
6
口口口口 |①②③④|
口①②口 |----|
口③④口 |----|
口口口口 |----|

口口口口 |----|
口口口口
口口口口
口口口口
7
②口口⑩ |①②-③|
①⑦口口 |④⑤⑥⑦|
口⑤⑥⑨ |-⑧⑨-|
⑧③④口 |-⑩--|
8
②口口⑩ |①②-③|
①⑦口口 |④⑤⑥⑦|
口⑤⑥⑨ |-⑧⑨-|
⑧③④口 |-⑩--|
9
②口口⑩ |①②-③|
①⑦口口 |④⑤⑥⑦|
口⑤⑥⑨ |-⑧⑨-|
⑧③④口 |-⑩--|
10
②口口口 |①②-③|
①⑦口口 |④⑤⑥⑦|
⑧⑤⑥口 |-⑧--|
⑧③④口 |----|
11
④④②② |①②-③|
③口口① |④-⑤⑥|
口口⑥⑥
口口口⑤

口口⑪⑫
口口⑬口
⑨⑩口口 |-⑦⑧⑨|
⑦⑧口口 |⑩⑪⑫⑬|
12
②②口口 |①②-③|
①口口口 |④-⑤⑥|
⑥⑥④④
⑤口③口

⑪⑫⑦⑧
⑬口⑨⑩
口口口口 |-⑦⑧⑨|
口口口口 |⑩⑪⑫⑬|
13
口口⑥⑥ |①②-③|
口口⑤口 |④-⑤⑥|
④④②②
口③口①

⑦⑧口口
⑨⑩口口
口口⑪⑫ |-⑦⑧⑨|
口口⑬口 |⑩⑪⑫⑬|
14
⑥⑥④④ |①②-③|
⑤口口③ |④-⑤⑥|
②②口口
口①口口

口口口口
口⑧⑦口
⑩⑪⑨口 |-⑦⑧⑨|
⑫⑬口口 |⑩⑪⑫⑬|
15
②④口口 |①-②-|
②④口③ |③-④-|
口口口③
口口口①

口口⑤口
⑦口⑥口
口口⑤口 |⑤--⑥|
⑦口⑥口 |--⑦-|
16
口③口② |①--②|
口口③口 |--③-|
口①口②
口①口口

口口④口
口④口口
⑤口⑥⑦ |④-⑤-|
口⑥⑦⑤ |⑥-⑦-|
17
②②④① |①-②-|
口口④① |③-④-|
口③口口
③口口口

口口口⑦
口⑤口⑥
口口口⑦ |⑤--⑥|
口⑤口⑥ |--⑦-|
18
②③口口 |①-②③|
口⑥口口 |-④⑤⑥|
口①①口
④口⑤口

⑩口⑨口
⑧口口⑦
口口口口 |⑦-⑧-|
口⑧口⑦ |⑨-⑩-|
19
口②口③ |①-②-|
④②①口 |③-④-|
③口③①
①④②④

⑥⑦⑤口
口⑦⑥⑤
口⑤口⑥ |⑤---|
口口⑦口 |⑥-⑦-|
20
口口③① |①-②-|
②口口③ |③---|
②口①口
①③口②

④⑤口⑥
⑦⑤④口
⑦口⑥④ |④-⑤-|
⑥口⑤⑦ |⑥-⑦-|
21
⑥口①口 |①②-③|
口⑤④① |④-⑤⑥|
口①口③
口②口口

口⑫⑬口
口口口口
口⑩⑪口 |-⑦⑧⑨|
⑧口⑨⑦ |⑩⑪⑫⑬|
22
口⑩⑪② |①②-③|
④⑫⑬⑥ |④-⑤⑥|
③⑧⑨① |-⑦⑧⑨|
口口⑦⑤ |⑩⑪⑫⑬|
23
②口口口 |①-②-|
②口口③ |③-④-|
④口口①
④口口③

⑦口⑤口
⑦口⑥口
口口⑤口 |⑤--⑥|
口口⑥口 |--⑦-|
24
口④口③ |①-②③|
口①口② |--④-|
口④口口
口①口口

口口口口
口⑦⑧口
⑤口口⑥ |⑤-⑥-|
⑤⑦⑧⑥ |⑦-⑧-|
25
②口①③ |①-②-|
②口口③ |③-④-|
④口①口
④口口口

口口⑥口
口⑦口口
口口⑥⑤ |⑤--⑥|
口⑦口⑤ |--⑦-|
26
①⑦口③ |①-②③|
①口⑥② |-④⑤⑥|
口⑤口口 |⑦-⑧-|
⑧⑩④⑨ |⑨-⑩-|
27
①④③④ |①-②-|
③②③① |③-④-|
②④口②
口口①口

⑥口口口
口口口⑥
⑦口⑤⑦ |⑤---|
⑤⑦⑥⑤ |⑥-⑦-|
28
口③①② |①-②-|
②①①口 |③---|
口②③口
口口口③

⑤口⑥⑦
⑦口⑥④
⑤⑦口⑤ |④-⑤-|
④⑥④口 |⑥-⑦-|
29
口口口口 |①---|
口①口口 |②---|
口口①口
②口口②

④⑤⑤④
口口③⑤
口口⑤口 |③---|
口③口口 |④-⑤-|
30
口口⑥口 |①-②-|
口⑥口口 |③-④-|
⑤口⑥② |⑤---|
③⑥①④ |⑥---|
31
①口口① |①--②|
口④④口 |--③-|
③口口③ |④---|
②⑤⑤② |⑤---|
32
①②③① |①-②-|
④④口口 |③-④-|
口②③口
口口口口

⑧⑧口口
口口口⑤
⑥口口⑤ |⑤-⑥-|
口⑥⑦⑦ |⑦-⑧-|
33
口口①① |①--②|
口口③④ |--③-|
口口②② |④---|
口口⑤⑤ |⑤---|
34
②⑧口① |①-②-|
②④③⑤ |③-④-|
⑧⑥⑤③ |⑤-⑥-|
⑥④⑦⑦ |⑦-⑧-|
35
口口①① |①--②|
口口②③ |--③-|
口口③②
口口口口

口口⑤⑤
口口口口
口口口口 |④---|
口口④④ |⑤---|
36
口口口口 |①-②-|
④口①③ |③-④-|
②口口①
口口③口

口⑥口口
口口⑦口
口⑧⑤口 |⑤-⑥-|
口口口⑤ |⑦-⑧-|
37
②口口① |①-②-|
②口口② |③-④-|
口口④①
①③口④

口⑤⑦口
口⑤⑥口
⑥⑦口⑥ |⑤---|
⑦口⑤口 |⑥-⑦-|
38
①④口① |①-②-|
②③口① |③-④-|
口口③口
口②③②

口口口⑦
口口口口
⑥口口⑤ |⑤-⑥-|
口口口口 |⑦---|
39
口口口口 |----|
口口口口 |----|
口口口口
口口口口
40
①①①① |①-②③|
②⑨④⑦ |-④⑤-|
⑩③⑧⑤ |⑥-⑦⑧|
⑥⑥⑥⑥ |-⑨⑩-|
41
①①①① |①-②③|
③口口口 |-④⑤-|
口②口⑤
口口④口

口⑥口口
口口口口
口口口口 |----|
口口口口 |--⑥-|
42
口⑧⑦口 |①-②-|
①口口⑥ |③-④-|
②口口⑤ |⑤-⑥-|
口③④口 |⑦-⑧-|
43
口口口口 |①--②|
①②口③ |--③-|
口口口口
①②口③

口口④口
口口口口
口⑤④口 |④---|
⑤口口口 |--⑤-|
44
⑤④③⑤ |①-②-|
④②①③ |③-④-|
②⑥⑥① |⑤--⑥|
口⑦⑦口 |--⑦-|
45
③⑤⑤④ |①-②-|
③⑦⑦④ |③-④-|
①口口② |⑤--⑥|
①⑥⑥② |--⑦-|
46
③口口③ |①--②|
②口口② |--③-|
①口口①
口口口口

口④口口
口口口口
④口口口 |----|
口口口口 |--④-|
47
口口口口 |①②-③|
⑤④①② |-④⑤-|
口⑥①② |⑥-⑦-|
⑦③③⑦ |----|
48
①①①① |①-②③|
②⑨④⑦ |-④⑤-|
⑩③⑧⑤ |⑥-⑦⑧|
⑥⑥⑥⑥ |-⑨⑩-|
49
①①①① |①-②③|
③口口口 |-④⑤-|
口②口⑤
口口④口

口口口口
⑥口口口
口口口口 |----|
口口口口 |--⑥-|
50
④①②⑤ |①-②-|
口⑧口③ |③-④-|
⑥①②⑦ |⑤-⑥-|
口口口口 |⑦-⑧-|
51
口口口口 |①--②|
③口①③ |--③-|
口口口口
口②②口

④口口④
口⑥⑥口
口口口口 |④--⑤|
⑤口口⑤ |--⑥-|
52
②①①② |①---|
口口口口 |--②-|
口口口口
口口口口

口口④口
口口⑤口
口口④口 |③--④|
③口⑤③ |--⑤-|
53
③①口口 |①-②-|
②④口⑥ |③-④-|
⑦口⑤口 |⑤---|
口口口⑥ |⑥-⑦-|
54
③③口口 |①---|
④口①口 |②-③-|
口②口口 |----|
口口①口 |--④-|
55
口口口口 |①-②-|
口①②③ |③-④-|
④⑤⑥⑦ |⑤-⑥-|
⑧口口口 |⑦-⑧-|
56
①①①① |①---|
②②②② |②---|
③③③③ |③---|
④④④④ |④---|
57
①①④口 |①-②-|
①③②② |③-④-|
③口④口
口口口口

⑦口口⑧
口口口⑧
口⑦口⑥ |⑤-⑥-|
⑤⑤⑥口 |⑦-⑧-|
58
口①口口 |①-②-|
③①②口 |③-④-|
①口④口
口③④②

⑤口口⑧
口⑦⑧⑥
口⑤口⑥ |⑤-⑥-|
⑦口口口 |⑦-⑧-|
59
③①②口 |①-②-|
①口口④ |③-④-|
①③②口
口口口④

口⑥口⑥
⑥⑤⑥口
口口口口 |⑤---|
口⑤口口 |⑥---|
60
口口⑥⑥ |①②-③|
口口口⑤ |④-⑤⑥|
④④②②
③口①口

⑦⑧口口
⑨⑩口口
口口⑪⑫ |-⑦⑧⑨|
口口⑬口 |⑩⑪⑫⑬|
61
⑥⑥口口 |①②-③|
⑤口②② |④-⑤⑥|
④④口口
③口口①

口口⑪⑫
口口⑬口
口口⑦⑧ |-⑦⑧⑨|
口口⑨⑩ |⑩⑪⑫⑬|
62
④④口口 |①②-③|
口③口口 |④-⑤⑥|
②②⑥⑥
口①⑤口

口口⑦⑧
口口⑨⑩
⑪⑫口口 |-⑦⑧⑨|
⑬口口口 |⑩⑪⑫⑬|
63
②②⑦⑦ |①②-③|
⑨①口口 |④⑤⑥⑦|
⑧⑧③④ |-⑧⑨-|
口口⑤⑥ |----|

不確定度: 0

最終更新:2016年04月11日 22:25