overcomplexification
かめりあ

EXTREME

Level: 10
BPM: 190
Notes: 790

1
口口口口 |----|
口口口口 |----|
口口口口 |----|
口口口口 |----|
2
口口口口 |①---|
口口口口 |----|
口口②口 |----|
口口①口 |②---|
3
口口②⑤ |----|
口口④⑤ |①-②-|
口③口口 |③-④-|
口①口口 |⑤---|
4
口①口口 |①---|
口②口口 |----|
口口口口 |----|
口口口口 |②---|
5
⑤①②口 |①-②-|
⑥口口口 |③-④-|
⑦③④口 |⑤⑥⑦⑧--|
⑧口口⑨ |⑨---|
6
口口口口 |①---|
口口口口 |----|
口②口口 |----|
口①口口 |②---|
7
⑤②口口 |----|
⑤④口⑥ |①-②-|
口口③口 |③-④-|
口口①口 |⑤-⑥-|
8
口口②① |①---|
口口③口 |--②-|
口口口口 |----|
口口口口 |③---|
9
②口口口 |--①-|
④③口口 |--②-|
⑥⑤①口 |③-④-|
口口口口 |⑤-⑥-|
10
口口口口 |①---|
口口口口 |②---|
口口④③ |③---|
口①①② |④---|
11
口口③⑥ |①---|
口口⑤⑥ |②-③-|
口④口口 |④-⑤-|
口②①口 |⑥---|
12
②①口口 |①---|
③④口口 |②---|
口口口口 |③---|
口口口口 |④---|
13
⑤①②口 |①-②-|
⑥口口口 |③-④-|
⑦③④口 |⑤⑥⑦⑧--|
⑧口口⑨ |⑨---|
14
④②①③ |①-②-|
⑥⑧⑦⑤ |③-④-|
口口口口 |⑤-⑥-|
口口口口 |⑦-⑧-|
15
⑯⑫⑪⑮ |①②③④|
⑩⑭⑬⑨ |⑤⑥⑦⑧|
⑧④③⑦ |⑨⑩⑪⑫|
②⑥⑤① |⑬⑭⑮⑯|
16
口口口口 |①---|
口口口口 |----|
口口口口 |----|
口口口① |----|
17
①口口口 |①-②③|
口⑨⑨⑤ |④-⑤-|
口④③② |⑥⑦⑧-|
⑥⑦⑧口 |⑨---|
18
口①口② |①---|
①口口口 |--②-|
口口②口
口口口①

④⑤③口
口口口口
④⑤口③ |③---|
口口口口 |④-⑤-|
19
口口口③ |①-②-|
②口④① |③-④-|
⑧⑫⑪⑦ |⑤⑥⑦⑧|
⑥⑩⑨⑤ |⑨⑩⑪⑫|
20
③口①② |①-②-|
③⑤④① |③-④⑤|
口口口口
口口口口

口口口口
口口口⑫
⑦口⑩⑥ |⑥⑦⑧⑨|
⑨⑪⑩⑧ |⑩-⑪⑫|
21
③⑤④② |①②③-|
③⑦⑥口 |④⑤⑥⑦|
⑨①口⑧ |⑧-⑨-|
⑨口口⑧ |----|
22
④口口② |①---|
①④②① |--②-|
⑤①①③ |③---|
口⑤③口 |④-⑤-|
23
口口口口 |①-②-|
口口④③ |③-④-|
口②①口
口口口口

⑧⑫口口
⑥⑩口口
口口⑪⑨ |⑤⑥⑦⑧|
口口⑤⑦ |⑨⑩⑪⑫|
24
⑤⑦②① |①-②-|
④⑥口③ |③---|
⑤⑦口口 |④-⑤-|
④⑥口口 |⑥-⑦-|
25
⑥⑥②④ |①-②-|
⑤口①③ |③-④-|
⑤口②④ |⑤---|
⑥⑥①③ |⑥---|
26
口口①口 |①---|
②①口口 |--②-|
②①口口
口口口口

口口口口
口⑤③④
口⑤③④ |③---|
口口口口 |④-⑤-|
27
⑤④③⑨ |①-②-|
⑥口口⑩ |③-④-|
⑦口口⑪ |⑤⑥⑦⑧|
⑧②①⑫ |⑨⑩⑪⑫|
28
口口口口 |①---|
口①①口 |----|
口口口口
口①口口

口②⑥口
③⑦口口
口④口口 |②③④⑤|
⑤口口口 |--⑥⑦|
29
口口口③ |①②--|
⑦口④口 |③④⑤⑥|
口口①⑤ |--⑦-|
⑦②⑥口 |----|
30
口①①③ |①-②-|
⑦⑦③⑤ |③---|
③②②④ |④-⑤-|
⑥⑥④⑤ |⑥-⑦-|
31
①①口② |①---|
口口②③ |②---|
口①①口 |③---④-|
口⑤④③ |--⑤---|
32
口口口② |①---|
①口口③ |----|
口口口口 |--②-|
①口口口 |--③-|
33
口①①口 |①---|
口口口口 |②---|
口口口口
口②②口

口⑥口口
⑤④口口
③口口口 |③-④-|
口口口口 |⑤-⑥-|
34
口口口口 |①---|
口口口口 |--②-|
②口口②
①口口①

口口口口
口口③口
口口口口 |③-④-|
口④⑤⑥ |⑤-⑥-|
35
④②③① |----|
⑥口口⑤ |①②③④|
口⑧⑨口 |⑤-⑥-|
口⑩⑦口 |⑦⑧⑨⑩|
36
②③④口 |①---|
⑤①①口 |--②③|
⑤口口口 |④-⑤-|
口口⑥⑦ |⑥-⑦-|
37
⑫⑪⑩⑨ |----|
⑧④⑦③ |①②③④|
⑥②⑤① |⑤⑥⑦⑧|
口口口口 |⑨⑩⑪⑫|
38
口口口口 |①---|
口口口口 |--②-|
口②②口
口口口①

口口口口
口口③口
口口口口 |③-④-|
口④⑤⑥ |⑤-⑥-|
39
⑤口⑦① |----|
⑤口口口 |①-②③|
②③④⑥ |④-⑤-|
口口口口 |⑥-⑦-|
40
口⑨⑧口 |①-②-|
口⑥⑤④ |③-④⑤|
③⑦⑦口 |⑥---|
①②口口 |⑦-⑧⑨|
41
③口口⑥ |--①-|
口③⑦口 |②-③-|
②⑧口① |④-⑤-|
⑨⑤④口 |⑥⑦⑧⑨|
42
②口口口 |①---|
②口口① |--②-|
口口④③ |③-④-|
⑥⑤口① |⑤-⑥-|
43
口⑦④③ |①-②-|
⑧④③口 |③-④-|
②⑨⑥⑤ |⑤-⑥-|
⑩⑥⑤① |⑦⑧⑨⑩|
44
口口②⑤ |①---|
口口③① |--②③|
口口④口 |④-⑤-|
⑦⑥口① |⑥-⑦-|
45
③④口口 |--①-|
口口⑥⑤ |②--③|
口⑨⑧⑦ |④-⑤⑥|
口口②① |-⑦⑧⑨|
46
口口①① |①---|
②②口口 |--②-|
⑤⑥口口 |③-④-|
口口④③ |⑤-⑥-|
47
口⑦④③ |①-②-|
口④③① |③-④-|
口⑧⑥⑤ |⑤-⑥-|
②⑥⑤口 |⑦-⑧-|
48
口⑦⑥④ |①-②-|
口口④① |③-④-|
②口口口 |--⑤-|
口⑤⑤③ |--⑥⑦|
49
③口口口 |--①-|
口③口口 |②-③-|
②口口① |--④-|
口④④口 |----|
50
⑦⑧口口 |①-②-|
⑥⑤④③ |③-④-|
口口口② |⑤-⑥-|
口口口① |⑦-⑧-|
51
口口①② |①-②-|
口口口③ |③-④-|
口口口④ |⑤-⑥-|
⑧⑦⑥⑤ |⑦-⑧-|
52
①④⑥⑦ |①②③-|
②⑤口⑧ |-④⑤-|
③口口⑨ |-⑥-⑦|
⑩口口口 |⑧⑨-⑩|
53
⑥口⑨⑧ |-①②-|
⑦口⑨⑧ |③④-⑤|
口①③口 |-⑥⑦-|
口②④⑤ |⑧-⑨-|
54
口①口口 |①-②-|
口①口口 |③-④-|
③②口⑧ |⑤-⑥-|
④⑤⑥⑦ |⑦-⑧-|
55
口④③② |①-②-|
口⑤⑥① |③-④-|
口⑧⑦口 |⑤-⑥-|
口口口口 |⑦-⑧-|
56
①④⑥⑦ |①②③-|
②⑤口⑧ |-④⑤-|
③口口⑨ |-⑥-⑦|
⑩口口口 |⑧⑨-⑩|
57
口⑥⑥口 |-①②-|
口口口口 |③④-⑤|
口①③口 |⑥---|
口②④⑤ |----|
58
口口口口 |①---|
口口口口 |----|
口②口口 |----|
口①口口 |②---|
59
⑤②口口 |----|
⑤④口口 |①-②-|
口口③口 |③-④-|
口口①口 |⑤---|
60
口口①口 |①---|
口口②口 |----|
口口口口 |----|
口口口口 |②---|
61
口②①⑤ |①-②-|
口口口⑥ |③-④-|
口④③⑦ |⑤⑥⑦⑧--|
⑨口口⑧ |⑨---|
62
口①①口 |①---|
③①①口 |②---|
②口④口 |③---|
口口口口 |④---|
63
口①③口 |①---|
⑦口⑤⑥ |②-③-|
口④口口 |④-⑤-|
口②口口 |⑥-⑦-|
64
①④口⑦ |①-②-|
口⑧⑥口 |③-④-|
⑤口③口 |⑤-⑥-|
口口口② |⑦-⑧-|
65
⑧⑫①⑮ |①②③④|
④⑯⑪⑦ |⑤⑥⑦⑧|
⑩⑥⑬③ |⑨⑩⑪⑫|
②⑭⑤⑨ |⑬⑭⑮⑯|
66
口口①口 |①---|
口口口口 |----|
口口口口 |----|
口口口口 |----|
67
口口口口 |----|
口口口口 |----|
口口口口 |----|
口口口口 |----|
68
②口口① |①--②|
③口口口 |--③-|
⑥口口口 |④--⑤|
⑤口口④ |--⑥-|
69
口②①口 |①--②|
口⑦③④ |-③④-|
口⑤⑦口 |⑤-⑥-|
口口⑥口 |⑦---|
70
②口④① |①--②|
④口②口 |③-④-|
口口口①
①③口口

口口口口
口⑦口⑥
⑦⑤口口 |⑤⑥--|
⑧口口⑥ |⑦-⑧-|
71
口①③① |①--②|
口口口口 |③-④-|
口④②①
口②④口

⑥口口口
⑥⑦⑤⑦
口口口⑧ |⑤⑥--|
口口口口 |⑦-⑧-|
72
口①②口 |①--②|
口口④口 |③-④-|
①④口口
口②③①

口口口口
⑥口口⑦
口口⑤⑦ |⑤⑥--|
⑥口口⑧ |⑦-⑧-|
73
①③②① |①--②|
口口④口 |③-④-|
①口口口
口②④口

口口口口
⑧⑤口⑨
⑩⑥⑦⑪ |⑤⑥⑦-|
口口口口 |⑧⑨⑩⑪|
74
②口②口 |①--②|
口④④口 |③-④-|
口口口口
①③口口

口口口口
⑦口口口
⑦⑤⑥口 |⑤⑥--|
⑧口口⑥ |⑦-⑧-|
75
④①③① |①--②|
口④口口 |③-④-|
口口口①
口②②口

口口口口
⑦口⑤⑦
口⑥⑥⑧ |⑤⑥--|
口口口口 |⑦-⑧-|
76
口④②④ |①--②|
口口口口 |③-④-|
①口口口
①②③①

口口口口
口⑤⑤⑥
口⑥⑤⑦ |⑤--⑥|
⑧口口⑧ |⑦-⑧-|
77
①⑥⑦口 |①--②|
②⑧⑨口 |--③-|
③⑤口口 |④-⑤-|
口口④口 |⑥⑦⑧⑨|
78
④口口口 |①--②|
④口口② |③-④-|
口口口口
①③口②

口口口口
口口口口
⑦⑤⑦⑥ |⑤⑥--|
⑧口⑥口 |⑦-⑧-|
79
④①③① |①--②|
口①口口 |③-④-|
口④口口
口②口②

口口口口
⑥⑧⑤⑦
⑦口口⑥ |⑤⑥--|
口口口口 |⑦-⑧-|
80
口④口① |①--②|
口口④口 |③-④-|
口口口口
②②③口

口口口⑧
⑥口口⑦
口⑥⑤⑦ |⑤⑥--|
口口口口 |⑦-⑧-|
81
①③①口 |①--②|
口口④口 |③-④-|
①口口口
口④②②

口口口口
⑧⑤口⑨
⑩⑥⑦⑪ |⑤⑥⑦-|
口口口口 |⑧⑨⑩⑪|
82
④④②② |①--②|
口⑤⑤⑥ |--③-|
口口口⑥ |-④--|
①口③③ |⑤-⑥-|
83
④⑤⑥⑦ |①--②|
③口口⑧ |--③-|
③②②⑨ |④⑤⑥⑦|
①①⑪⑩ |⑧⑨⑩⑪|
84
口口口口 |①-②③|
⑥口口口 |④⑤⑥-|
⑤③④口
①②口口

⑪⑨口⑩
口⑧⑦口
口口口⑫ |⑦-⑧⑨|
⑬口口口 |⑩⑪⑫⑬|
85
⑫口⑤⑪ |①②③④|
⑥⑩口③ |⑤⑥⑦⑧|
④②⑨口 |⑨⑩⑪⑫|
口⑧①⑦ |----|
86
口口口口 |①---|
口口口口 |----|
口口②口 |----|
口口①口 |②---|
87
口口②⑤ |----|
口口④⑤ |①-②-|
口③口口 |③-④-|
口①口口 |⑤---|
88
口①口口 |①---|
口②口口 |----|
口口口口 |----|
口口口口 |②---|
89
②口口口 |----|
③口口口 |--①-|
④口①口 |②③④⑤--|
⑤口口口 |----|

不確定度: 0

最終更新:2015年07月26日 19:13