I'm so Happy
Ryu☆

EXTREME

Level: 10
BPM: 181
Notes: 806

1
口口口口 |----|
口口口口 |----|
口口口口 |----|
口口口口 |----|
2
②③⑦⑦ |①-②-|
④③⑤⑦ |③---|
口③⑦⑥ |④⑤⑥-|
①③⑦⑦ |⑦---|
3
⑤⑥口⑪ |①②③④|
⑦⑧⑨口 |⑤⑥⑦⑧|
③④⑪⑩ |⑨-⑩-|
①②口口 |⑪---|
4
口口口口 |①-②-|
④口口④ |③-④-|
①②口口
口③③口

口⑧口口
口口口口
⑦口口⑥ |⑤--⑥|
口口口⑤ |-⑦⑧-|
5
口口④⑧ |①--②|
⑤口①② |-③④-|
口③⑦口 |⑤--⑥|
⑥口口口 |-⑦⑧-|
6
口口口口 |①-②-|
口口口④ |③-④-|
①②口口
口口③口

⑧口口口
口口⑥口
⑦口口⑤ |⑤--⑥|
口口口口 |-⑦⑧-|
7
⑤①②② |①---|
③①③② |②---|
口①②⑤ |③-④-|
④①②② |⑤---|
8
口口口口 |①-②-|
④口口④ |③-④-|
①②口口
口③③口

口⑧口口
口口口口
⑦口口⑥ |⑤--⑥|
口口口⑤ |-⑦⑧-|
9
口口⑤⑩ |①②-③|
⑥口①③ |-④⑤-|
口④⑨口 |⑥⑦-⑧|
⑧⑦②口 |-⑨⑩-|
10
口口⑦⑧ |①-②-|
口口口④ |③-④-|
①②⑥口 |⑤-⑥-|
⑨⑩③⑤ |⑦⑧⑨⑩|
11
⑤②⑦⑩ |①②-③|
③③⑧⑧ |-④⑤-|
①④⑨⑥ |⑥⑦-⑧|
口口口口 |-⑨⑩-|
12
③口口口 |①---|
⑥口口④ |②---|
口口⑤口 |③-④-|
①①②② |⑤-⑥-|
13
③①②② |①---|
口①②④ |②-③-|
③①④② |--④-|
口①②② |----|
14
口①口口 |①---|
①口口口 |----|
口口口口
口口口口

口口口口
④口口②
口口③口 |--②-|
口口口口 |③-④-|
15
③⑤④① |①---|
口口①④ |②-③-|
②①口⑤ |④-⑤-|
①②口③ |----|
16
口口口口 |--①-|
口口②口 |②---|
口①口口 |----|
③口口③ |③---|
17
①③④③ |①---|
①③③③ |②-③-|
①③④③ |--④-|
口②②口 |----|
18
口口口口 |①-②-|
口口口口 |----|
口口口③ |----|
①口③② |③---|
19
②③口口 |①---|
口①口③ |②---|
③口①口 |----|
口口③② |③---|
20
⑥⑤②③ |①-②-|
口④①口 |③---|
口②③口 |--④-|
口①口口 |⑤-⑥-|
21
口口③口 |①-②-|
④⑨⑤口 |③-④⑤|
⑥口⑦① |⑥⑦⑧-|
⑧②⑩口 |⑨-⑩-|
22
口口④口 |①-②-|
⑤口⑥① |③-④-|
⑦口⑧② |⑤⑥⑦⑧|
⑨③口⑩ |⑨-⑩-|
23
口口③口 |①-②-|
④⑨⑤口 |③-④⑤|
⑥口⑦① |⑥⑦⑧-|
⑧②⑩口 |⑨-⑩-|
24
口口④口 |①-②-|
⑤口⑥① |③-④-|
⑦口⑧② |⑤⑥⑦⑧|
⑨③口⑩ |⑨-⑩-|
25
⑨口③口 |①-②-|
④口⑤口 |③-④⑤|
⑥口⑦① |⑥⑦⑧-|
⑧②⑩口 |⑨-⑩-|
26
口①口② |①-②-|
口⑤口⑥ |③-④-|
口③口④ |⑤-⑥-|
口⑦口⑧ |⑦-⑧-|
27
①⑨②⑩ |①②③④|
③⑪④⑫ |⑤⑥⑦⑧|
⑤⑬⑥⑭ |⑨⑩⑪⑫|
⑦⑮⑧⑯ |⑬⑭⑮⑯|
28
②④②④ |①---|
①③①③ |②---|
②④②④ |③---|
口口口口 |④---|
29
④⑥④⑤ |①-②-|
④④④口 |③---|
④口④⑦ |④-⑤-|
①③③② |⑥-⑦-|
30
口口③口 |①--②|
口口口② |--③-|
口①③口
口口口口

口⑥口口
⑤口口口
口⑥口口 |④--⑤|
口口口④ |--⑥-|
31
④口③⑤ |①--②|
口④⑤② |--③-|
⑥口③⑦ |④-⑤-|
①⑥⑦口 |⑥-⑦-|
32
口口③口 |①--②|
口口口② |--③-|
口①③口
口口口口

口⑥口口
⑤口口口
口⑥口口 |④--⑤|
口口口④ |--⑥-|
33
⑤口③⑦ |①--②|
口⑤⑦② |--③-|
④口③⑥ |④-⑤-|
①④⑥口 |⑥-⑦-|
34
口口③口 |①--②|
口口口② |--③-|
口①③口
口口口口

口⑥口口
⑤口口口
口⑥口口 |④--⑤|
口口口④ |--⑥-|
35
④口③⑤ |①--②|
口④⑤② |--③-|
⑥口③⑦ |④-⑤-|
①⑥⑦口 |⑥-⑦-|
36
口口③口 |①--②|
口口口② |--③-|
口①③口
口口口口

口⑥口口
⑤口口口
口⑥口口 |④--⑤|
口口口④ |--⑥-|
37
④口③⑤ |①--②|
口口口② |--③-|
⑥口③⑦ |④-⑤-|
①口口口 |⑥-⑦-|
38
口①⑤口 |①-②③|
口④口③ |④-⑤-|
口①⑤口
口②口口

口⑨口口
⑦口⑧口
口⑨口口 |⑥--⑦|
口口⑧⑥ |⑧-⑨-|
39
④口③⑤ |①--②|
口口口② |--③-|
⑥口③⑦ |④-⑤-|
①口口口 |⑥-⑦-|
40
口①⑤口 |①-②③|
口④口③ |④-⑤-|
口①⑤口
口②口口

口⑨口口
⑧口⑦口
口⑨口口 |⑥-⑦⑧|
口口⑦⑥ |--⑨-|
41
⑤口③⑦ |①--②|
口口口② |--③-|
④口③⑥ |④-⑤-|
①口口口 |⑥-⑦-|
42
口①⑤口 |①-②③|
口④口③ |④-⑤-|
口①⑤口
口②口口

口⑨口口
⑧口⑦口
口⑨口口 |⑥-⑦⑧|
口口⑦⑥ |--⑨-|
43
④口③⑤ |①--②|
口口口② |--③-|
⑥口③⑦ |④-⑤-|
①口口口 |⑥-⑦-|
44
口①④口 |①--②|
口③口② |③-④-|
口①④口
口③口口

口⑧口口
⑥口⑦口
口⑧口口 |⑤--⑥|
口口⑦⑤ |⑦-⑧-|
45
⑦口④⑦ |①--②|
口③⑥② |③-④-|
①口④口 |⑤--⑥|
①⑤口口 |--⑦-|
46
口⑧④口 |①-②-|
⑦口口③ |③-④-|
⑥口口② |⑤-⑥-|
⑤口口① |⑦-⑧-|
47
⑤口口⑤ |①-②-|
口①②口 |③-④-|
口⑥⑧口 |⑤-⑥-|
④⑦⑦③ |⑦-⑧-|
48
口②②口 |①---|
①口口① |②---|
①口口① |----|
口③③口 |③---|
49
③口口③ |①---|
口②②口 |②---|
①④④① |③---|
④口口④ |④---|
50
⑩⑬⑤⑬ |①②③④|
②⑥⑨① |⑤⑥⑦⑧|
④⑫⑬⑦ |⑨⑩⑪⑫|
口⑧③⑪ |⑬---|
51
⑩⑬⑤⑬ |①②③④|
②⑥⑨① |⑤⑥⑦⑧|
④⑫⑬⑦ |⑨⑩⑪⑫|
口⑧③⑪ |⑬---|
52
⑩⑭⑤⑬ |①②③④|
②⑥⑨① |⑤⑥⑦⑧|
④⑫⑮⑦ |⑨⑩⑪⑫|
⑯⑧③⑪ |⑬⑭⑮⑯|
53
④④口口 |①---|
①③③① |②---|
②口口② |③---|
口口④④ |④---|
54
口口③① |①-②-|
④⑨⑤① |③-④⑤|
⑥②⑦口 |⑥⑦⑧-|
⑧口⑩口 |⑨-⑩-|
55
②②口① |①-②-|
口⑤③① |③-④-|
④⑦⑥③ |--⑤-|
口④口口 |⑥-⑦-|
56
③口④口 |①-②-|
①口口② |③-④-|
③口口④
①口②口

口⑦口⑧
⑧⑤⑥口
口⑦⑧口 |⑤-⑥-|
口⑤口⑥ |⑦-⑧-|
57
②⑥③⑥ |--①-|
口④⑤① |②-③-|
②口⑥③ |④-⑤-|
口④①⑤ |⑥---|
58
③口④口 |①-②-|
①口口② |③-④-|
③口口④
①口②口

口⑦口⑧
⑧⑤⑥口
口⑦⑧口 |⑤-⑥-|
口⑤口⑥ |⑦-⑧-|
59
②⑥③⑦ |--①-|
口④⑤① |②-③-|
②⑥⑦③ |④-⑤-|
口④①⑤ |⑥-⑦-|
60
③口④口 |①-②-|
①口口② |③-④-|
③口口④
①口②口

口⑦口⑧
⑧⑤⑥口
口⑦⑧口 |⑤-⑥-|
口⑤口⑥ |⑦-⑧-|
61
②⑥③⑥ |--①-|
口④⑤① |②-③-|
②口⑥③ |④-⑤-|
口④①⑤ |⑥---|
62
③⑦④⑧ |①-②-|
①⑤⑥② |③-④-|
③⑦⑧④ |⑤-⑥-|
①⑤②⑥ |⑦-⑧-|
63
③⑧④口 |①-②-|
①⑤⑦② |③-④-|
③口口④ |⑤-⑥-|
①⑤②⑥ |⑦-⑧-|
64
③口④口 |①-②-|
①口口② |③-④-|
③口口④
①口②口

口⑦口⑧
⑧⑤⑥口
口⑦⑧口 |⑤-⑥-|
口⑤口⑥ |⑦-⑧-|
65
②⑥③⑥ |--①-|
口④⑤① |②-③-|
②口⑥③ |④-⑤-|
口④①⑤ |⑥---|
66
③口④口 |①-②-|
①口口② |③-④-|
③口口④
①口②口

口⑦口⑧
⑧⑤⑥口
口⑦⑧口 |⑤-⑥-|
口⑤口⑥ |⑦-⑧-|
67
②⑥③⑦ |--①-|
口④⑤① |②-③-|
②⑥⑦③ |④-⑤-|
口④①⑤ |⑥-⑦-|
68
⑩⑬⑤⑬ |①②③④|
②⑥⑨① |⑤⑥⑦⑧|
④⑫⑬⑦ |⑨⑩⑪⑫|
⑭⑧③⑪ |⑬-⑭-|
69
⑩⑬⑤⑬ |①②③④|
②⑥⑨① |⑤⑥⑦⑧|
④⑫⑬⑦ |⑨⑩⑪⑫|
口⑧③⑪ |⑬---|
70
⑩⑭⑤⑬ |①②③④|
②⑥⑨① |⑤⑥⑦⑧|
④⑫⑮⑦ |⑨⑩⑪⑫|
⑯⑧③⑪ |⑬⑭⑮⑯|
71
⑥⑥②口 |①-②-|
①⑤⑤① |③-④-|
③口口③ |⑤---|
口④⑥⑥ |⑥---|
72
口口口① |①---|
口口口口 |----|
口口口口 |----|
①口口口 |----|


不确定度: 0

タグ:

+ タグ編集
  • タグ:

このサイトはreCAPTCHAによって保護されており、Googleの プライバシーポリシー利用規約 が適用されます。

最終更新:2012年11月10日 13:51