glacia
DJ TOTTO

EXTREME

Level: 10
BPM: 186
Notes: 945

1
口①①口 |----|
口口口口 |----|
口口口口 |----|
口①①口 |①---|
2
⑥口口④ |①-②-|
口③口口 |③-④-|
口①①口 |--⑤-|
②⑤口口 |--⑥-|
3
口口口口 |--①-|
口⑥②口 |--②③|
口③①口 |④-⑤-|
④口口⑤ |⑥---|
4
④口口⑥ |①-②-|
口口③口 |③-④-|
口口⑤② |--⑤-|
口①①口 |--⑥-|
5
口①口口 |--①-|
②口口⑥ |--②③|
口③口口 |④-⑤-|
⑤⑦④口 |⑥-⑦-|
6
⑥①①口 |①-②-|
④口口口 |③-④-|
口⑤③口 |--⑤-|
口口口② |--⑥-|
7
口口⑥① |--①-|
口②口口 |--②③|
口口③口 |④-⑤-|
⑤口口④ |⑥---|
8
⑦③口⑥ |①-②-|
口④⑤口 |③-④-|
②⑧⑧口 |⑤-⑥-|
口①①口 |⑦-⑧-|
9
口②①口 |--①-|
④⑧口③ |②-③④|
⑥口口⑤ |⑤⑥⑦-|
口⑧口⑦ |⑧---|
10
①③口② |①-②③|
⑦⑦④口 |④-⑤-|
⑤①口口 |--⑥-|
⑥⑥口口 |--⑦-|
11
口⑥口口 |--①-|
口口②① |--②③|
口③④口 |④-⑤-|
⑤口①⑦ |⑥-⑦-|
12
口口⑥⑤ |--①②|
口③②⑥ |③-④-|
④口⑤口 |--⑤-|
口①口口 |--⑥-|
13
⑦①口口 |--①-|
①⑥②口 |--②③|
口③口口 |④-⑤-|
⑤口④口 |⑥-⑦-|
14
口⑤口口 |--①②|
⑤⑥口① |③-④-|
②⑥④口 |--⑤-|
口口口③ |--⑥-|
15
口口⑥口 |--①-|
口口口⑤ |--②③|
②口③口 |④-⑤-|
⑦④①① |⑥-⑦-|
16
⑧④⑦⑧ |--①②|
④①②⑦ |③-④-|
⑥③口⑤ |⑤-⑥-|
口⑥⑤口 |⑦-⑧-|
17
⑨③⑥口 |--①-|
口⑦②口 |②-③④|
口①口④ |⑤⑥⑦-|
⑤⑧口口 |⑧-⑨-|
18
口⑤⑥⑦ |①-②-|
④口口口 |③-④-|
口③②口 |--⑤-|
口口口① |⑥-⑦-|
19
②⑥口⑪ |--①②|
口⑩⑨③ |③④⑤⑥|
口④⑪⑦ |⑦⑧⑨⑩|
⑧口⑤① |⑪---|
20
②⑨口口 |①-②③|
⑦口⑦③ |④-⑤-|
④⑥口⑧ |⑥-⑦-|
⑨⑤⑤① |⑧-⑨-|
21
④口②口 |①-②-|
口①口⑤ |③-④⑤|
口口③口
口口口②

口⑧口⑧
口⑨⑨口
口⑥口口 |⑥-⑦-|
口口⑦口 |⑧-⑨-|
22
口口口口 |①-②③|
④口口口 |④-⑤-|
②⑤③⑤
口①口①

口口⑨口
口⑧口口
口口口口 |⑥-⑦-|
⑦口⑥⑨ |⑧-⑨-|
23
②口口口 |①-②-|
④⑩①⑤ |③-④⑤|
⑥⑨③⑦ |⑥⑦⑧-|
⑧②口口 |⑨-⑩-|
24
⑥⑦②① |--①②|
⑧⑨④③ |③④⑤-|
口⑫⑪口 |⑥⑦⑧⑨|
⑩⑤⑩⑤ |⑩-⑪⑫|
25
⑤口⑥① |①-②-|
口⑦②口 |③-④-|
③口⑧口 |⑤-⑥⑦|
⑨④口口 |⑧-⑨-|
26
⑧⑦口① |--①-|
④⑧③口 |②③④⑤|
⑥⑦口① |⑥-⑦-|
口②口⑤ |--⑧-|
27
口⑦⑦⑦ |--①-|
⑥⑥⑥① |②-③-|
③⑤⑤⑤ |④-⑤-|
②④④口 |⑥-⑦-|
28
②⑨口口 |①-②③|
⑦口⑦③ |④-⑤-|
④⑥口⑧ |⑥-⑦-|
⑨⑤⑤① |⑧-⑨-|
29
④口②口 |①-②-|
口①口⑤ |③-④⑤|
口口③口
口口口②

口⑧口⑧
口⑨⑨口
口⑥口口 |⑥-⑦-|
口口⑦口 |⑧-⑨-|
30
⑤口口口 |①-②③|
②口口口 |④-⑤-|
口口③口
④①口①

口口⑨口
口⑧口⑦
口⑥口口 |⑥-⑦-|
口口口⑨ |⑧-⑨-|
31
②④口① |--①-|
③⑤口口 |--②-|
③⑤口口 |③-④-|
④②①口 |⑤---|
32
⑥⑦②① |--①②|
⑧⑨④③ |③④⑤-|
口⑫⑪口 |⑥⑦⑧⑨|
⑩⑤⑩⑤ |⑩-⑪⑫|
33
⑤口⑥① |①-②-|
口⑦②口 |③-④-|
③口⑧口 |⑤-⑥⑦|
⑨④口口 |⑧-⑨-|
34
⑩①⑩口 |--①②|
③⑦②④ |③④⑤⑥|
⑨⑤⑨⑥ |⑦-⑧-|
口⑧口⑧ |⑨-⑩-|
35
口①口① |--①-|
口④⑦⑪ |②-③-|
⑧⑥口② |④⑤⑥⑦|
③⑩⑤⑨ |⑧⑨⑩⑪|
36
①②③④ |①-②-|
⑤⑥⑦⑧ |③-④-|
口⑤⑤口 |⑤-⑥-|
口口口口 |⑦-⑧-|
37
①②③④ |①-②-|
⑤⑥⑦⑧ |③-④-|
⑤口口⑤ |⑤-⑥-|
口①①口 |⑦-⑧-|
38
①②③④ |①-②-|
⑤⑥⑦⑧ |③-④-|
口口口口 |⑤-⑥-|
口①①口 |⑦-⑧-|
39
①②③④ |①-②-|
⑤⑥⑦⑧ |③-④-|
口口口口 |⑤-⑥-|
口口口口 |⑦-⑧-|
40
①②③④ |①-②-|
⑤⑥⑦⑧ |③-④-|
口⑤口⑤ |⑤-⑥-|
口口口口 |⑦-⑧-|
41
①②③④ |①-②-|
⑤⑥⑦⑧ |③-④-|
⑤口口⑤ |⑤-⑥-|
口①①口 |⑦-⑧-|
42
①②③④ |①-②-|
⑤⑥⑦⑧ |③-④-|
口⑧口口 |⑤-⑥-|
口①①口 |⑦-⑧-|
43
①②③④ |①-②-|
⑤⑥⑦⑧ |③-④-|
口口口口 |⑤-⑥-|
口④③② |⑦-⑧-|
44
①②③④ |①-②-|
⑤⑥⑦口 |③-④-|
④③①② |--⑤-|
口⑦⑤⑥ |⑥-⑦-|
45
口②③④ |①-②-|
口口口① |③-④-|
口口口口
①口口口

口口口口
⑤⑥⑦⑧
口口口口 |⑤-⑥-|
⑧口⑤口 |⑦-⑧-|
46
①②③口 |①-②-|
④⑤⑥⑦ |③---|
口③①② |④-⑤-|
⑦⑥④⑤ |⑥-⑦-|
47
①②③④ |①-②-|
⑤⑥⑦⑧ |③-④-|
口口口口 |⑤-⑥-|
口口⑤⑤ |⑦-⑧-|
48
①②③④ |①-②-|
⑤⑥⑦口 |③-④-|
④③①② |--⑤-|
口⑦⑤⑥ |⑥-⑦-|
49
口②③④ |①-②-|
口口口① |③-④-|
口口口口
①口口口

口口口口
⑤⑥⑦⑧
口口口口 |⑤-⑥-|
⑧口⑤口 |⑦-⑧-|
50
①②③口 |①-②-|
④⑤⑥⑦ |③---|
口③①② |④-⑤-|
⑦⑥④⑤ |⑥-⑦-|
51
口①口口 |①-②-|
口口口口 |③-④-|
口③②④
口口口口

⑩⑪⑫⑬
⑨口口⑭
⑧口口口 |⑤-⑥-|
⑦⑥⑤口 |⑦⑧⑨⑩⑪⑫⑬⑭|
52
口口口口 |①-②-|
口①①口 |③-④-|
口④③口
口口口②

口口口口
口口⑦口
⑤口口口 |--⑤-|
口⑥口口 |⑥-⑦-|
53
④⑥②⑩ |--①②|
⑤③⑨① |③④⑤⑥|
口口口⑧ |⑦-⑧-|
口口⑦口 |⑨-⑩-|
54
⑤口④⑧ |①-②③|
口③⑥口 |④-⑤-|
②⑦口口 |--⑥-|
①①口口 |⑦-⑧-|
55
口①口口 |--①-|
口⑤口口 |--②③|
⑥口②③ |④-⑤-|
口⑦④口 |⑥-⑦-|
56
⑤⑦①① |①-②③|
口口④口 |④-⑤-|
⑧③口口 |--⑥-|
②口口⑥ |⑦-⑧-|
57
口口口① |--①②|
⑧②口③ |③④⑤⑥|
口④⑨⑤ |⑦-⑧-|
⑩⑥口⑦ |⑨-⑩-|
58
⑦口⑧口 |--①②|
口①②⑥ |③-④-|
⑤③⑧口 |⑤-⑥-|
口口⑧④ |⑦-⑧-|
59
口①口② |--①-|
③④⑤口 |--②-|
口①口② |--③④|
⑥①口② |⑤-⑥-|
60
②④③口 |①-②③|
⑨⑨⑦⑤ |④-⑤-|
②④③⑥ |⑥-⑦-|
⑧①⑧⑦ |⑧-⑨-|
61
④⑩②⑥ |①-②-|
⑩口口口 |③-④-|
⑦⑤①口 |⑤⑥⑦⑧|
⑨③口⑧ |⑨-⑩-|
62
③口①⑤ |①-②③|
口③④② |④-⑤-|
口口口②
口口④口

口口⑨口
口口口口
⑦⑥⑨口 |⑥-⑦-|
⑧⑦口⑧ |⑧-⑨-|
63
⑦⑦口⑧ |①-②-|
④①②② |③-④⑤|
⑨⑤⑧③ |⑥-⑦-|
口⑨⑥口 |⑧-⑨-|
64
⑥口⑤⑧ |①-②③|
④②①⑧ |④-⑤-|
⑨④⑦③ |⑥-⑦-|
②⑨⑦③ |⑧-⑨-|
65
口②口⑧ |①-②-|
⑥②③口 |③④⑤⑥|
口④⑩① |⑦-⑧-|
⑨⑪⑦⑤ |⑨⑩⑪-|
66
口①②口 |①-②③|
口③④② |④-⑤-|
③⑤口口
口口⑤④

⑦⑨口⑦
⑥口口口
口口⑧⑥ |⑥-⑦-|
⑨⑧口口 |⑧-⑨-|
67
⑧口②口 |①-②-|
④①③④ |③-④-|
④⑤口④ |--⑤⑥|
口⑦⑥② |⑦-⑧-|
68
⑥①①⑤ |①-②-|
④②口③ |③-④-|
③口②④ |--⑤-|
⑥口口⑤ |--⑥-|
69
口③②⑧ |--①-|
④⑨⑥① |②-③-|
①⑦⑩⑤ |④⑤⑥⑦|
⑪③②口 |⑧⑨⑩⑪|
70
②⑨口口 |①-②③|
⑦口⑦③ |④-⑤-|
④⑥口⑧ |⑥-⑦-|
⑨⑤⑤① |⑧-⑨-|
71
④口②口 |①-②-|
口①口⑤ |③-④⑤|
口口③口
口口口②

口⑧口⑧
口⑨⑨口
口⑥口口 |⑥-⑦-|
口口⑦口 |⑧-⑨-|
72
口口口口 |①-②③|
④口口口 |④-⑤-|
②⑤③⑤
口①口①

口口⑨口
口⑧口口
口口口口 |⑥-⑦-|
⑦口⑥⑨ |⑧-⑨-|
73
②口口口 |①-②-|
④⑩①⑤ |③-④⑤|
⑥⑨③⑦ |⑥⑦⑧-|
⑧②口口 |⑨-⑩-|
74
⑥⑦②① |--①②|
⑧⑨④③ |③④⑤-|
口⑫⑪口 |⑥⑦⑧⑨|
⑩⑤⑩⑤ |⑩-⑪⑫|
75
⑤口⑥① |①-②-|
口⑦②口 |③-④-|
③口⑧口 |⑤-⑥⑦|
⑨④口口 |⑧-⑨-|
76
⑧⑦口① |--①-|
④⑧③口 |②③④⑤|
⑥⑦口① |⑥-⑦-|
口②口⑤ |--⑧-|
77
口⑦⑦⑦ |--①-|
⑥⑥⑥① |②-③-|
③⑤⑤⑤ |④-⑤-|
②④④口 |⑥-⑦-|
78
②⑨口口 |①-②③|
⑦口⑦③ |④-⑤-|
④⑥口⑧ |⑥-⑦-|
⑨⑤⑤① |⑧-⑨-|
79
④口②口 |①-②-|
口①口⑤ |③-④⑤|
口口③口
口口口②

口⑧口⑧
口⑨⑨口
口⑥口口 |⑥-⑦-|
口口⑦口 |⑧-⑨-|
80
⑤口口口 |①-②③|
②口口口 |④-⑤-|
口口③口
④①口①

口口⑨口
口⑧口⑦
口⑥口口 |⑥-⑦-|
口口口⑨ |⑧-⑨-|
81
②④口① |--①-|
③⑤口口 |--②-|
③⑤口口 |③-④-|
④②①口 |⑤---|
82
⑥⑦②① |--①②|
⑧⑨④③ |③④⑤-|
口⑫⑪口 |⑥⑦⑧⑨|
⑩⑤⑩⑤ |⑩-⑪⑫|
83
⑤口⑥① |①-②-|
口⑦②口 |③-④-|
③口⑧口 |⑤-⑥⑦|
⑨④口口 |⑧-⑨-|
84
⑩①⑩口 |--①②|
③⑦②④ |③④⑤⑥|
⑨⑤⑨⑥ |⑦-⑧-|
口⑧口⑧ |⑨-⑩-|
85
口①口① |--①-|
口④⑦⑪ |②-③-|
⑧⑥口② |④⑤⑥⑦|
③⑩⑤⑨ |⑧⑨⑩⑪|
86
①④③口 |①-②-|
口⑤⑥口 |③-④-|
口⑦⑧② |--⑤⑥|
口⑨口口 |⑦⑧⑨-|
87
口④③② |--①-|
⑦⑥⑦口 |--②③|
①⑦口口 |④-⑤-|
⑦口⑦⑤ |⑥-⑦-|

不確定度: 0

最終更新:2015年08月25日 00:19