FLOWER [2]
DJ YOSHITAKA

EXTREME

Level: 10
BPM: 173
Notes: 950

1
口口口口 |----|
口口口口 |----|
口口口口 |----|
口口口口 |----|
2
②⑤⑤② |①---|
③口口④ |②---|
口口口口 |③-④-|
③①①④ |⑤---|
3
①口口③ |①-②-|
口⑤⑥口 |③-④-|
口⑦⑧口 |⑤⑥⑦⑧|
口④②口 |----|
4
⑦②③⑧ |①---|
②⑥⑥③ |②-③-|
⑤⑤④④ |④-⑤-|
①口口① |⑥-⑦⑧|
5
口 |①---|
口 |----|



口口口口
②口口②
口口口口 |----|
口 |②---|
6
口口④⑦ |①-②-|
口口③⑥ |③-④-|
口口②⑤ |--⑤-|
|⑥-⑦-|
7
口口③⑥ |--①-|
口口②⑤ |②-③-|
口口①④ |--④-|
口口口口 |⑤-⑥-|
8
口口③⑥ |--①-|
口口②⑤ |②-③-|
口口①④ |--④-|
口口口口 |⑤-⑥-|
9
口口口口 |①-②-|
口口④口 |③-④-|
③口
口②口

口口口口
口⑧
口口⑦ |⑤-⑥-|
口口口⑥ |⑦-⑧-|
10
④⑦ |①-②-|
口③⑥ |③-④-|
口口②⑤ |--⑤-|
口口口口 |⑥-⑦-|
11
口口③⑥ |--①-|
口口②⑤ |②-③-|
口口①④ |--④-|
口口口口 |⑤-⑥-|
12
口口口 |①-②-|
口口④口 |③-④-|
③口
口口②口

口⑤口口
口口口口
口口口口 |--⑤-|
|⑥-⑦-|
13
口口口 |①-②-|
口口口
口口
口口口


口口口口 |--③-|
口口口口
口口口口

口口口
口口口
口口口 |--④-|
口口口

口口口口
口⑤⑤口
口口口口
口口口 |--⑤-|
14
⑨口口② |①-②-|
⑥口口⑦ |③④⑤-|
①③④口 |⑥⑦-⑧|
⑧⑤口口 |--⑨-|
15
⑨⑥口② |①-②-|
口③⑦口 |③④⑤-|
①口口④ |⑥⑦-⑧|
⑧⑤口口 |--⑨-|
16
② |①-②-|
⑥口口⑦ |③④⑤-|
①③④口 |⑥⑦-⑧|
⑧⑤口口 |⑨-|

口口

口口口口
口口口口 |⑩-|
17
口口口口 |--①-|
口口
口口
口口口口

口口口口
口口口口 |--②-|

口口口口

口口口口
口口口口
口口口 |--③-|
口口

口口口口
口口口口
口口口口
口口口 |--④-|
18
⑨口口② |①-②-|
⑥①口⑦ |③④⑤-|
口③④口 |⑥⑦-⑧|
⑧⑤口口 |--⑨-|
19
⑨⑥口② |①-②-|
口③⑦口 |③④⑤-|
①口口④ |⑥⑦-⑧|
⑧⑤口口 |--⑨-|
20
⑨口口② |①-②-|
⑥口口⑦ |③④⑤-|
①③④口 |⑥⑦-⑧|
⑧⑤口口 |--⑨-|
21
|①---|
口口口口 |----|
口口口口
口口口口

口口口

口口口口 |②---|
口口口口 |----|
22
口口口口 |①---|
口口口
口口口口


口口口口
口口口口 |--②-|

口口口

口口
口口口口
口口口 |----|
口口口口 |③---|
23
①口口口 |①-②③|
⑥②③⑦ |-④⑤-|
⑧④⑤⑨ |⑥⑦-⑧|
口⑩口口 |⑨-⑩-|
24
①口口口 |①-②③|
口②③口 |-④⑤-|
口④⑤口
口口口口


⑥口口⑦
口口口口 |⑥⑦--|
口口口口 |⑧-|

口口
口口口口
口口口口
口口 |⑨-|
25
口口口口 |--①-|
口口
口口


口口
口 |--②-|
口口
口口口口

口口口口
口口口
口 |--③-|
口口口

口口
口口口口
口口口口
口口口 |--④-|
26
①口口口 |①-②③|
⑥②③⑦ |-④⑤-|
⑧④⑤⑨ |⑥⑦-⑧|
口⑩口口 |⑨-⑩-|
27
①口口口 |①-②③|
⑥②③⑦ |-④⑤-|
⑧④⑤⑨ |⑥⑦-⑧|
口⑩口口 |⑨-⑩-|
28
①口口口 |①-②③|
⑥②③⑦ |-④⑤-|
⑧④⑤⑨ |⑥⑦-⑧|
口⑩口口 |⑨-⑩-|
29
|①-②-|
口②①口 |--③-|
口口口口
口口口口

口口口口
口⑦口口
口口口⑥ |④-⑤-|
⑤口④口 |⑥-⑦-|
30
⑥口口 |①-②③|
②⑨⑦③ |-④⑤-|
口①①口 |⑥⑦⑧-|
⑧④⑤⑩ |⑨-⑩-|
31
口⑥口口 |①-②③|
②⑨⑦③ |-④⑤-|
口①①口 |⑥⑦⑧-|
⑧④⑤⑩ |⑨-⑩-|
32
口⑥口口 |①-②③|
②⑨⑦③ |-④⑤-|
口①①口 |⑥⑦⑧-|
⑧④⑤⑩ |⑨-⑩-|
33
口⑥口口 |①-②③|
②⑨⑦③ |-④⑤-|
口①①口 |⑥⑦⑧-|
⑧④⑤⑩ |⑨-⑩-|
34
①⑦⑧① |①-②③|
⑥⑨⑩⑥ |-④⑤-|
口②③口 |⑥-⑦⑧|
口④⑤口 |-⑨⑩-|
35
口⑦⑧口 |①-②③|
⑥⑨⑩⑥ |-④⑤-|
①②③① |⑥-⑦⑧|
口④⑤口 |-⑨⑩-|
36
①⑨⑩② |①②③④|
⑤⑬⑬⑥ |⑤⑥⑦⑧|
③⑪⑫④ |⑨⑩⑪⑫|
⑦口口⑧ |⑬---|
37
①口③口 |①--②|
口口口② |--③-|
口③口③
口②①口

⑤④口⑥
口④④口
④口口口 |-④--|
⑤口口⑥ |⑤-⑥-|
38
⑦⑦②⑪ |①-②③|
①④口① |-④⑤⑥|
⑧③⑤口 |-⑦-⑧|
⑩⑥①⑨ |⑨-⑩⑪|
39
⑥⑪②⑫ |①-②③|
①③⑩① |-④⑤⑥|
⑨①⑤⑦ |-⑦-⑧|
口④口⑧ |⑨⑩⑪⑫|
40
口口②口 |①-②③|
①④口口 |-④⑤⑥|
口③⑤口
①⑥口口

口⑩⑩⑨
口口⑦口
⑧口口口 |-⑦-⑧|
口口口口 |⑨-⑩-|
41
①口口口 |①-②③|
①③口② |-④⑤-|
口口口口
③⑤口④

⑩⑨口⑥
口口⑪口
⑦口口⑧ |⑥⑦⑧⑨|
⑫口口口 |-⑩⑪⑫|
42
⑦⑦②⑪ |①-②③|
①④口① |-④⑤⑥|
⑧③⑤口 |-⑦-⑧|
⑩⑥①⑨ |⑨-⑩⑪|
43
⑥⑪②⑫ |①-②③|
①③⑩口 |-④⑤⑥|
⑨①⑤⑦ |-⑦-⑧|
口④口⑧ |⑨⑩⑪⑫|
44
口口②口 |①-②③|
①④口口 |-④⑤⑥|
口③⑤口
①⑥口口

口⑩⑩⑨
口口⑦口
⑧口口口 |-⑦-⑧|
口口口口 |⑨-⑩-|
45
①口口口 |①-②③|
①③口② |-④⑤-|
口口口口
③⑤口④

⑩⑨口⑥
口口⑪口
⑦口口⑧ |⑥⑦⑧⑨|
⑫口口口 |-⑩⑪⑫|
46
⑦⑦②⑪ |①-②③|
①④口① |-④⑤⑥|
⑧③⑤口 |-⑦-⑧|
⑩⑥①⑨ |⑨-⑩⑪|
47
⑥⑪②⑫ |①-②③|
①③⑩口 |-④⑤⑥|
⑨①⑤⑦ |-⑦-⑧|
口④口⑧ |⑨⑩⑪⑫|
48
口口②口 |①-②③|
①④口口 |-④⑤⑥|
口③⑤口
①⑥口口

口⑩⑩⑨
口口⑦口
⑧口口口 |-⑦-⑧|
口口口口 |⑨-⑩-|
49
①口口口 |①-②③|
①③口② |-④⑤-|
口口口口
③⑤口④

⑩⑨口⑥
口口⑪口
⑦口口⑧ |⑥⑦⑧⑨|
⑫口口口 |-⑩⑪⑫|
50
⑦⑦②⑪ |①-②③|
①④口① |-④⑤⑥|
⑧③⑤口 |-⑦-⑧|
⑩⑥①⑨ |⑨-⑩⑪|
51
⑥⑪②⑫ |①-②③|
①③⑩① |-④⑤⑥|
⑨口⑤⑦ |-⑦-⑧|
口④①⑧ |⑨⑩⑪⑫|
52
口口②口 |①-②③|
①④口① |-④⑤⑥|
口③⑤口
①⑥①口

口⑩⑩⑨
口口⑦口
⑧口口口 |-⑦-⑧|
口口口口 |⑨-⑩-|
53
①口口口 |①-②③|
⑤③口② |-④⑤-|
口①口口
③口口④

⑩⑨口⑥
口口⑪口
⑦口口口 |⑥⑦⑧⑨|
口⑫⑧口 |-⑩⑪⑫|
54
口口①口 |①--②|
②③口③ |--③-|
口①口①
②口③②

④④口④
口口⑥口
⑥⑤⑥⑤ |-④--|
口⑤口口 |⑤-⑥-|
55
口口②口 |①-②-|
③⑤口④ |③④⑤-|
口口口口
①口口口


口口口口
口口口口 |⑥---|


口口口
口口⑦口
口⑦口口
口口口 |⑦---|
56
口口①口 |①--②|
②③口③ |--③-|
①口②①
②口③口

④④口④
口口⑥口
⑥⑤口⑤ |-④--|
口⑤口⑥ |⑤-⑥-|
57
口⑤②口 |①-②-|
③⑥⑨④ |③④⑤-|
⑧口⑦口 |⑥⑦-⑧|
①口口口 |--⑨-|
58
口口①口 |①--②|
②③口③ |--③-|
口①口①
②口③②

④④口④
口口⑥口
⑥⑤⑥⑤ |-④--|
口⑤口口 |⑤-⑥-|
59
口口②口 |①-②-|
③⑤口④ |③④⑤-|
口口口口
①口口口


口口口口
口口口口 |⑥---|


口口口
口口⑦口
口⑦口口
口口口 |⑦---|
60
口口①口 |①--②|
②③口③ |--③-|
①口②①
②口③口

④④口④
口口⑥口
⑥⑤口⑤ |-④--|
口⑤口⑥ |⑤-⑥-|
61
口⑤②⑨ |①-②-|
③⑥口口 |③④⑤-|
口⑧④口 |⑥⑦-⑧|
①口⑦口 |--⑨-|
62
|①---|
|----|
|----|
|----|
63
口口口口 |----|
口口口口 |----|
口口口口 |----|
口口口口 |----|
64
口口口 |①---|
口①口 |----|
口①口 |----|
口口口 |----|
65
口口口口 |----|
口口口口 |----|
口口口口 |----|
口口口口 |----|
66
口口口口 |----|
口口口口 |----|
口口口口 |----|
口口口口 |----|
67
口口口口 |----|
口口口口 |----|
口口口口 |----|
口口口口 |----|
68
①①①① |①-②-|
②③口口 |③-④-|
④⑧⑤口 |⑤-⑥-|
⑥口口⑦ |⑦-⑧-|
69
①①①① |①-②-|
口口③② |③-④-|
口口口④
口口口口

口口口口
口口口⑧
口口⑤口 |⑤-⑥-|
口⑦口⑥ |⑦-⑧-|
70
①口口① |①-②-|
口口②口 |③-④-|
⑦③④⑧ |⑤-⑥-|
⑤⑥口⑤ |⑦-⑧-|
71
①口③口 |①--②|
②①①② |--③-|
口③口口
口③②口

⑤④口④
口口⑥口
⑥口④⑤ |-④--|
⑥口口⑤ |⑤-⑥-|
72
口口②口 |①-②③|
①④口① |-④⑤⑥|
口③⑤口
口⑥①口

⑦⑪口口
口口⑩⑫
⑨口口⑧ |-⑦⑧⑨|
⑬口口口 |⑩⑪⑫⑬|
73
⑥口②口 |①-②③|
口③口口 |-④⑤⑥|
口口⑤口
口④①口

口⑩⑬口
⑭口⑨口
⑧口口⑦ |⑦⑧⑨⑩|
⑫口口⑪ |⑪⑫⑬⑭|
74
③口口口 |①-②③|
口④口① |-④⑤⑥|
口口⑤口
口⑥②口

口⑫⑧⑦
口口⑪口
⑩⑨口口 |-⑦⑧⑨|
口口⑬口 |⑩⑪⑫⑬|
75
①口口口 |①-②③|
①③口② |-④⑤-|
口口口口
③⑤口④

⑩⑨口⑥
口口⑪口
⑦口口⑧ |⑥⑦⑧⑨|
⑫口口口 |-⑩⑪⑫|
76
口口②口 |①-②③|
①④口① |-④⑤⑥|
口③⑤口
口⑥①口

⑦⑪口口
口口⑩⑫
⑨口口⑧ |-⑦⑧⑨|
⑬口口口 |⑩⑪⑫⑬|
77
⑥口②口 |①-②③|
①③口口 |-④⑤⑥|
口①⑤口
口④①口

口⑩⑬口
⑭口⑨口
⑧口口⑦ |⑦⑧⑨⑩|
⑫口口⑪ |⑪⑫⑬⑭|
78
③⑫⑧⑦ |①-②③|
口④⑪① |-④⑤⑥|
⑩⑨⑤⑬ |-⑦⑧⑨|
口⑥②口 |⑩⑪⑫⑬|
79
①口口口 |①-②③|
⑤③口② |-④⑤-|
口口口口
③口口④

⑩⑨口⑥
口口⑪口
⑦口口口 |⑥⑦⑧⑨|
口⑫⑧口 |-⑩⑪⑫|
80
口口①口 |①--②|
②③口③ |--③-|
口①口①
②口③②

④④口④
口口⑥口
⑥⑤⑥⑤ |-④--|
口⑤口口 |⑤-⑥-|
81
口口②口 |①-②-|
③⑤口④ |③④⑤-|
口口口口
①口口口


口口口口
口口口口 |⑥---|


口口口
口口⑦口
口⑦口口
口口口 |⑦---|
82
口口①口 |①--②|
②③口③ |--③-|
①口②①
②口③口

④④口④
口口⑥口
⑥⑤口⑤ |-④--|
口⑤口⑥ |⑤-⑥-|
83
口⑤②口 |①-②-|
③⑥⑨④ |③④⑤-|
⑧口⑦口 |⑥⑦-⑧|
①口口口 |--⑨-|
84
口口①口 |①--②|
②③口③ |--③-|
口①口①
②口③②

④④口④
口口⑥口
⑥⑤⑥⑤ |-④--|
口⑤口口 |⑤-⑥-|
85
口口②口 |①-②-|
③⑤口④ |③④⑤-|
口口口口
①口口口


口口口口
口口口口 |⑥---|


口口口
口口⑦口
口⑦口口
口口口 |⑦---|
86
口口①口 |①--②|
②③口③ |--③-|
①口②①
②口③口

④④口④
口口⑥口
⑥⑤口⑤ |-④--|
口⑤口⑥ |⑤-⑥-|
87
⑤口②⑨ |①-②-|
③⑥口口 |③④⑤-|
口⑧④口 |⑥⑦-⑧|
①口⑦口 |--⑨-|

不確定度: 0

最終更新:2015年10月29日 13:55