Two Pianists
小野秀幸

EXTREME

Level: 10
BPM: 178
Notes: 770

1
口口口口 |----|
口口口口 |----|
口口口口 |----|
口口口口 |----|
2
①口口① |①--②|
④②②④ |----|
口⑤⑤口 |③---|
口③③口 |④--⑤|
3
⑤⑥④③ |----|
⑨⑩口口 |①②③④|
口口⑫⑪ |⑤⑥⑦⑧|
①②⑧⑦ |⑨⑩⑪⑫|
4
口口口口 |①--②|
⑤④①② |----|
②①④⑤ |③---|
口③③口 |④--⑤|
5
⑩口②① |----|
口口④③ |①②③④|
⑥⑤口口 |⑤⑥⑦⑧|
⑧⑦口⑨ |⑨-⑩-|
6
口口口口 |①--②|
②②⑤⑤ |----|
④④①① |③---|
口③③口 |④--⑤|
7
①①③口 |----|
②口③口 |①---|
口口②① |②---|
口③口② |③---|
8
口口口口 |①---|
口③口⑤ |②③④⑤|
②①④口
①口①口

⑥口口口
⑩口⑧口
口⑨口⑦ |⑥---|
口口口口 |⑦⑧⑨⑩|
9
④③②① |①---|
口⑤⑥⑦ |②-③-④-|
⑩⑨⑧口 |⑤-⑥-⑦-|
口口口口 |⑧-⑨-⑩-|
10
⑥口⑦⑤ |①-②-|
④⑧⑦口 |③-④-|
口口口③ |⑤-⑥-|
②①①① |⑦-⑧-|
11
口口口口 |①-②-|
口口口口 |③-④-|
①③⑤⑦ |⑤-⑥-|
②④⑥⑧ |⑦-⑧-|
12
①③③① |①-②-|
②④④② |③-④-|
⑥⑤⑤⑥ |⑤-⑥-|
⑧⑦⑦⑧ |⑦-⑧-|
13
①②③④ |①-②-|
①口⑤口 |③-④⑤|
⑦口口⑥ |⑥-⑦-|
口⑧⑧⑨ |⑧-⑨-|
14
①①④④ |①-②-|
口②⑤口 |③-④-|
⑦⑥③口 |⑤-⑥-|
⑦口口⑧ |⑦-⑧-|
15
②⑧口⑦ |①-②-|
⑥④④③ |③-④-|
口口口⑤ |⑤-⑥-|
口①①口 |⑦-⑧-|
16
口口口口 |①-②-|
口口口② |③-④-|
③①①口
④口口④

口口口口
⑧⑥⑦口
口⑩⑨⑤ |⑤-⑥-⑦-|
口口口口 |⑧-⑨-⑩-|
17
①②③④ |①-②-|
口口⑤① |③-④⑤|
⑦口⑨⑥ |⑥-⑦-|
口⑧⑧口 |⑧-⑨-|
18
口①④口 |①-②-|
①②⑤④ |③-④-|
口⑦⑦口 |⑤-⑥-|
⑥⑧口③ |⑦-⑧-|
19
①口⑧① |①-②-|
口②口⑦ |③-④-|
④口⑥④ |⑤-⑥-|
口口③⑤ |⑦-⑧-|
20
①④口④ |①-②-|
口②①口 |③-④-|
口③口口
口口口口

口口口口
口⑩⑨⑧
口口口口 |⑤-⑥-⑦-|
口⑤⑥⑦ |⑧-⑨-⑩-|
21
⑨⑩⑪⑫ |①②③④|
⑯⑮⑭⑬ |⑤⑥⑦⑧|
④③②① |⑨⑩⑪⑫|
⑤⑥⑦⑧ |⑬⑭⑮⑯|
22
⑨⑩⑪⑫ |①②③④|
⑯⑮⑭⑬ |⑤⑥⑦⑧|
④③②① |⑨⑩⑪⑫|
⑤⑥⑦⑧ |⑬⑭⑮⑯|
23
口口口口 |①---|
口口口口 |②-③-|
②口口① |----|
口③③口 |----|
24
口口口口 |①---|
①口口② |②-③-|
④③③⑤ |--④-⑤-|
口⑥⑦⑧ |⑥-⑦-⑧-|
25
①②③④ |①②③④|
⑧⑦⑥⑤ |⑤⑥⑦⑧|
⑫⑪⑩⑨ |⑨⑩⑪⑫|
⑬⑭⑮⑯ |⑬⑭⑮⑯|
26
①②③④ |①②③④|
⑧⑦⑥⑤ |⑤⑥⑦⑧|
⑫⑪⑩⑨ |⑨⑩⑪⑫|
⑬⑭⑮⑯ |⑬⑭⑮⑯|
27
②①①② |①---|
口③④⑤ |②-③-|
口⑦③⑥ |④-⑤-|
口口口口 |⑥-⑦-|
28
③口口③ |①-②-|
口③③口 |--③-|
④口口④ |----|
②①①② |④---|
29
口①①口 |①-②-|
①口口② |③-④-|
口口③口
口口口④

⑧⑧口⑤
口口⑥口
⑦⑥口⑦ |⑤-⑥-|
⑤口⑧口 |⑦-⑧-|
30
口口①⑤ |①-②-|
②④⑥② |③-④-|
⑥⑥③⑦ |⑤-⑥-|
④②⑧④ |⑦-⑧-|
31
①口②口 |①---|
①口口口 |②---|
口口③口 |--③-|
口口口口 |----|
32
②口口② |①---|
口②②口 |--②-|
口口口口 |----|
①①①① |----|
33
口①①口 |①-②-|
①口口② |③-④-|
口口③口
口口口④

⑧⑧口⑤
口口⑥口
⑦⑥口⑦ |⑤-⑥-|
⑤口⑧口 |⑦-⑧-|
34
口口①⑤ |①-②-|
②④⑥② |③-④-|
⑥⑥③⑦ |⑤-⑥-|
④②⑧④ |⑦-⑧-|
35
①②口口 |①---|
①③口口 |②-③-|
⑦口口⑥ |④-⑤-|
⑤口口④ |⑥-⑦-|
36
①⑪⑩① |①---|
⑦③②⑥ |②③④⑤|
⑬⑨⑧⑫ |⑥⑦⑧⑨|
⑤口口④ |⑩⑪⑫⑬|
37
口口⑤④ |①---|
③口③③ |②-③-|
⑤④口⑤ |--④-|
④①①② |--⑤-|
38
①②口③ |--①-|
③②③口 |②---|
口口口口 |③---|
口口②口
39
③口①口 |①---|
口口口③ |②-③-|
口口③口
①①口②

口④口口
口口④口
口④口⑤ |--④-|
口⑤⑤口 |--⑤-|
40
②③③③ |--①-|
①口口口 |②---|
②口②口 |③---|
口口口口
41
⑤④④④ |-①--|
⑥②②② |②--③|
③③③⑥ |--④-|
①①①⑤ |--⑤⑥|
42
⑤①口口 |----|
⑥②口口 |----|
⑦③口口 |①②③④|
⑧④口口 |⑤⑥⑦⑧|
43
口⑤⑧④ |①-②-|
口⑤③⑦ |③-④-|
口口⑥② |⑤-⑥-|
口口①⑤ |⑦-⑧-|
44
④⑩⑨④ |①-②-|
口⑥③⑤ |③-④-|
⑧④⑦② |--⑤⑥|
①①①口 |⑦⑧⑨⑩|
45
⑤口⑧④ |①-②-|
口口③⑦ |③-④-|
口⑤⑥② |⑤-⑥-|
口①①⑤ |⑦-⑧-|
46
④④口③ |①-②-|
口口④口 |③-④-|
①口口①
①口②口

口口⑨口
口⑥口⑤
⑧⑩⑦口 |--⑤⑥|
口口口口 |⑦⑧⑨⑩|
47
口⑤⑧④ |①-②-|
⑤口③⑦ |③-④-|
口口⑥② |⑤-⑥-|
口①①⑤ |⑦-⑧-|
48
⑦④口⑦ |①-②-|
口⑤⑤口 |③-④-|
③②⑧③ |⑤-⑥-|
口①①⑥ |⑦-⑧-|
49
口②②口 |①---|
①口口① |--②-|
②口口②
口①①口

口口口口
口④口③
口口口口 |----|
口口口口 |--③④|
50
⑯④⑮③ |①②③④|
⑧⑭⑦⑬ |⑤⑥⑦⑧|
⑩⑥⑨⑤ |⑨⑩⑪⑫|
②⑫①⑪ |⑬⑭⑮⑯|
51
口①⑧④ |①-②-|
⑤口③⑦ |③-④-|
口⑤⑥② |⑤-⑥-|
口口①⑤ |⑦-⑧-|
52
①④口④ |①-②-|
④口③口 |③-④-|
①口口②
口口①口

⑧口⑨口
口⑩口⑦
口⑥⑤口 |--⑤⑥|
口口口口 |⑦⑧⑨⑩|
53
口⑤⑧④ |①-②-|
口口③⑦ |③-④-|
口⑤⑥② |⑤-⑥-|
口①①⑤ |⑦-⑧-|
54
④口口③ |①-②-|
⑩④④⑦ |③-④-|
⑥⑨⑧① |--⑤⑥|
①①②⑤ |⑦⑧⑨⑩|
55
⑤⑤⑧④ |①-②-|
口口③⑦ |③-④-|
口口⑥② |⑤-⑥-|
口①①⑤ |⑦-⑧-|
56
⑦口口⑦ |①-②-|
②⑤⑤口 |③-④-|
③口⑧③ |⑤-⑥-|
⑥①①④ |⑦-⑧-|
57
口②②口 |①---|
①口口① |--②-|
②口口②
口①①口

口口口口
口口口口
口口口口 |----|
④口③口 |--③④|
58
⑥⑫⑤⑪ |①②③④|
⑧②⑦① |⑤⑥⑦⑧|
④⑭③⑬ |⑨⑩⑪⑫|
⑯⑩⑮⑨ |⑬⑭⑮⑯|
59
口口③口 |①---|
口③口① |②-③-|
②口①④ |----|
口③口口 |④---|
60
①⑥口④ |--①-|
口②⑤⑥ |②-③-|
口⑥③口 |④-⑤-|
口口口口 |⑥---|
61
口口①口 |----|
①②②口 |①---|
口口①口 |--②-|
②口口② |----|
62
口③④⑤ |--①②|
⑦口口⑥ |③-④-|
口③②① |⑤-⑥-|
口口口⑧ |⑦-⑧-|
63
③④口③ |①---|
口口③口 |②-③-|
④口④② |----|
①①①口 |④---|
64
②口③③ |--①-|
口③口① |----|
口②口口 |②---|
①口②① |③---|
65
④口口口 |①---|
①⑤口② |②-③-|
⑤③⑤③ |--④-|
口①③① |⑤---|
66
⑤④②① |①-②-|
②⑤②口 |--③-|
口口⑤口 |④-⑤-|
③口④⑤ |----|
67
口口①① |①---|
③⑤③② |②-③-|
①①⑤③ |--④-|
④⑤口口 |⑤---|
68
⑤④②① |①-②-|
③⑤口② |--③-|
口②⑤口 |④-⑤-|
口口④⑤ |----|
69
口口口口 |----|
口口①① |①---|
①①口口 |----|
口口口口 |----|
70
口口口口 |----|
口口口口 |----|
口口口口 |----|
口口口口 |----|
71
⑩⑫⑪⑮ |①②③④|
⑭⑧⑨⑦ |⑤⑥⑦⑧|
④⑥⑤⑬ |⑨⑩⑪⑫|
⑯②③① |⑬⑭⑮⑯|

不確定度: 0

最終更新:2015年05月24日 19:12