Scars of FAUNA
猫叉Master

BASIC

Level: 4
BPM: 165
Notes: 288

1
口口口口 |----|
口口口口 |----|
口口口口 |----|
口口口口
2
口口口口 |①---|
口①①口 |----|
口口口口 |----|
口口口口
3
口口口口 |①---|
口口口口 |----|
口①①口 |----|
口口口口
4
口口口口 |①---|
①口口① |----|
口口口口 |----|
口口口口
5
口口口口 |①---|
口口口口 |----|
①口口① |----|
口口口口
6
口口口口 |①---|
口①①口 |----|
口口口口 |----|
口口口口
7
口口口口 |①---|
口口口口 |----|
口①①口 |----|
口口口口
8
口口口口 |①---|
①口口① |----|
口口口口 |----|
口口口口
9
口口口口 |①---|
口口口口 |----|
①口口① |----|
口口口口
10
口口口口 |①---|
口①①口 |----|
口口口口 |②---|
口口口②
11
口口口口 |①---|
口口口口 |----|
口①①口 |②---|
②口口口
12
口口口口 |①---|
①口口① |----|
口口口口 |②---|
口口②口
13
口口口口 |①---|
口口口口 |----|
①口口① |②---|
口②口口
14
口口口口 |①---|
口①①口 |----|
口口口口 |②---|
口口口②
15
口口口口 |①---|
口口口口 |----|
口①①口 |②---|
②口口口
16
口口口口 |①---|
①口口① |----|
口口口口 |②---|
口口②口
17
口口口口 |①---|
口口口口 |----|
①口口① |②---|
口②口口
18
口口①口 |①---|
口口口口 |----|
口口口口 |----|
口口口口
19
口口口口 |----|
口口口口 |----|
口①口口 |①---|
口口口口
20
口口口口 |①---|
口口口口 |----|
口口①口 |----|
口口口口
21
口口口口 |①---|
口口口口 |----|
口口口口 |----|
①口口口
22
口①口口 |①---|
口口口口 |----|
口口②口 |②---|
口口口口
23
口口口口 |①---|
口口口口 |----|
口①口口 |----|
口口口口
24
口口口口 |①---|
口口口口 |----|
口口口口 |----|
口口口①
25
口口口口 |①---|
口口③口 |②---|
口②口口 |③---|
①口口口
26
口口口① |①---|
口口口口 |----|
口口口口 |----|
口口口口
27
口口口口 |----|
口口口口 |----|
口①口口 |①---|
口口口口
28
口口口口 |①---|
口口口口 |----|
口口①口 |----|
口口口口
29
口口口口 |①---|
口口口口 |----|
口口口口 |----|
①口口口
30
口①口口 |①---|
口口口口 |----|
口口②口 |②---|
口口口口
31
口口口口 |①---|
口口口口 |----|
口①口口 |②---|
口口口②
32
口口口口 |①---|
口口②口 |----|
口口口口 |②---|
口①口口
33
口口口口 |①---|
口③口③ |②---|
口②口② |③---|
①口①口
34
①口①口 |①---|
口口口口 |----|
口口口口 |----|
口口口口
35
口口口口 |①---|
口口口口 |②---|
口①①口 |③---|
②口口③
36
口口口口 |①---|
①口口① |②---|
口口口口 |③---|
口②③口
37
口口口口 |①---|
口口口口 |②---|
①口口① |③---|
口②③口
38
口口口口 |①---|
口①①口 |②---|
口口口口 |③---|
②口口③
39
口口口口 |①---|
口口口口 |②---|
口①①口 |③---|
②口口③
40
口口口口 |①---|
①口口① |②---|
口口口口 |③---|
口②③口
41
口口口口 |①---|
口口口口 |②---|
①口口① |③---|
口②③口
42
口口口口 |----|
口口口口 |----|
口口口口 |----|
口口口口
43
口③口口 |①---|
口②口口 |②---|
口①口口 |③---|
口口口口
44
口口口① |①---|
口口②口 |②---|
口③口口 |③---|
口口口口
45
口口③口 |①---|
口口②口 |②---|
口口①口 |③---|
口口口口
46
①口口口 |①---|
口②口口 |②---|
口口③口 |③---|
口口口口
47
口③口口 |①---|
口②口口 |②---|
口①口口 |③---|
口口口口
48
口口口① |①---|
口口②口 |②---|
口③口口 |③---|
口口口口
49
口口③口 |①---|
口口②口 |②---|
口口①口 |③---|
口口口口
50
①口口口 |①---|
口②口口 |②---|
口口③口 |③---|
口口口口
51
口①①口 |①---|
口口口口 |----|
口口口口 |----|
口口口口
52
口口口口 |----|
口口口口 |----|
口口口口 |----|
口口口口
53
口口口口 |①---|
口口口口 |----|
口口口② |②---|
①口口口
54
口①口口 |①---|
口②口口 |②---|
口③口口 |③---|
口口口口
55
口口口口 |①---|
口口口口 |----|
口口口口 |----|
口①口口
56
口口口口 |①---|
口口口口 |----|
口口口口 |----|
①口口口
57
口口口口 |①---|
口口口口 |----|
口口口口 |----|
口口口①
58
口口①口 |①---|
口口②口 |②---|
口口③口 |③---|
口口口口
59
口口口口 |①---|
口口口口 |----|
口口口口 |----|
①①口口
60
口口①① |①---|
口口口口 |----|
口口口口 |----|
口口口口
61
口口口口 |①---|
①①口口 |----|
口口口口 |----|
口口口口
62
口口口口 |①---|
口口口口 |----|
口口①① |----|
口口口口
63
口口口口 |①---|
口口口口 |----|
①①口口 |----|
口口口口
64
口口口口 |①---|
口口①① |----|
口口口口 |----|
口口口口
65
①②③口 |①---|
口口口口 |②---|
口口口口 |③---|
口口口口
66
口口口① |①---|
口口口② |②---|
口口口③ |③---|
口口口口
67
口口口口 |①---|
口口③口 |②---|
口②口口 |③---|
口口①①
68
①①口口 |①---|
口③口口 |②---|
口口②口 |③---|
口口口口
69
口口口口 |①---|
口口③口 |②---|
口②口口 |③---|
口口①①
70
①①口口 |①---|
口③口口 |②---|
口口②口 |③---|
口口口口
71
口口口口 |①---|
口口③口 |②---|
口②口口 |③---|
口口①①
72
①①口口 |①---|
口③口口 |②---|
口口②口 |③---|
口口口口
73
口口口口 |①---|
口口口口 |----|
口口口口 |----|
口口①①
74
口③③口 |①---|
口②②口 |②---|
口①①口 |③---|
口口口口
75
①口口口 |①---|
口②口口 |②---|
口口③口 |③---|
口口口口
76
口口口口 |①---|
口口①口 |②---|
口②口口 |③---|
③口口口
77
口口口口 |①---|
口①口口 |②---|
口口②口 |③---|
口口口③
78
口口口口 |①---|
口口口口 |----|
口②口口 |②---|
口①①口
79
口口口① |①---|
口口②口 |②---|
口③口口 |③---|
口口口口
80
口口口口 |①---|
口①口口 |②---|
口口②口 |③---|
口口口③
81
口口口口 |①---|
口口口口 |----|
口口口口 |----|
①口口口
82
口口口口 |①---|
口口口口 |----|
口口口口 |----|
口①①口
83
①口口口 |①---|
口②口口 |②---|
口口③口 |③---|
口口口口
84
口口口口 |①---|
口口①口 |②---|
口②口口 |③---|
③口口口
85
口口口口 |①---|
口①口口 |②---|
口口②口 |③---|
口口口③
86
口口口口 |①---|
口口口口 |----|
口②口口 |②---|
口①①口
87
口口口① |①---|
口口②口 |②---|
口③口口 |③---|
口口口口
88
口口口口 |①---|
口①口口 |②---|
口口②口 |③---|
口口口③
89
口口口口 |①---|
口口口口 |----|
口口口口 |----|
①口口口
90
口口口口 |①---|
口③③口 |②---|
口②②口 |③---|
口①①口
91
①口口① |①---|
口口口口 |----|
口口口口 |----|
口口口口
92
口口口口 |----|
口口口口 |----|
口①口口 |①---|
口口口口
93
口口口口 |①---|
口口口口 |----|
口口①口 |----|
口口口口
94
口口口口 |①---|
口口口口 |----|
口口口口 |----|
①口口口
95
口口口① |①---|
口口口口 |----|
口②口口 |②---|
口口口口
96
口口口口 |①---|
口口口口 |----|
口口①口 |②---|
②口口口
97
口口口口 |①---|
口口口口 |----|
口口口口 |----|
口口口①
98
口口口口 |①---|
口③③口 |②---|
口②②口 |③---|
口①①口
99
①口口① |①---|
口口口口 |----|
口口口口 |----|
口口口口
100
口口口口 |①---|
口口口口 |②---|
口①①口 |③---|
②口口③
101
口口口口 |①---|
①口口① |②---|
口口口口 |③---|
口②③口
102
口口口口 |①---|
口口口口 |②---|
①口口① |③---|
口②③口
103
口口口口 |①---|
口①①口 |②---|
口口口口 |③---|
②口口③
104
口口口口 |①---|
口口口口 |②---|
口①①口 |③---|
②口口③
105
口口口口 |①---|
①口口① |②---|
口口口口 |③---|
口②③口
106
口口口口 |①---|
口口口口 |②---|
①口口① |③---|
口②③口
107
口①①口 |①---|
口口口口 |②---|
口口口口 |③---|
②②③③
108
①口口① |①---|
口口口口 |②---|
②②③③ |③---|
口口口口

不確定度: 0

最終更新:2015年02月22日 21:10