This game
鈴木このみ

EXTREME

Level: 9
BPM: 147
Notes: 537

1
口口口口 |----|
口口口口 |----|
口口口口 |----|
口口口口 |----|
2
口口口口 |①--②|
①口⑥口 |--③-|
②⑤口口 |--④-|
③口④口 |⑤-⑥-|
3
口①②③ |①--②|
口⑥口口 |--③-|
口口⑤口 |--④-|
口④口口 |⑤-⑥-|
4
口口口口 |①--②|
口⑥口① |--③-|
口口⑤② |--④-|
口④口③ |⑤-⑥-|
5
③②①口 |①--②|
口口⑥口 |--③-|
口⑤口口 |--④-|
口口④口 |⑤-⑥-|
6
口①⑥⑤ |①-②③|
①④⑨⑤ |④-⑤-|
口⑧③② |⑥-⑦-|
口口⑦口 |⑧-⑨-|
7
口①⑥⑤ |①-②③|
①④⑨⑤ |④-⑤-|
口⑧③② |⑥-⑦-|
口口⑦口 |⑧-⑨-|
8
口①⑥⑤ |①-②③|
①④⑨⑤ |④-⑤-|
口⑧③② |⑥-⑦-|
口口⑦口 |⑧-⑨-|
9
①④④③ |①--②|
口②口口 |--③-|
口口②口 |--④-|
③⑤⑤① |⑤---|
10
④口口③ |①--②|
⑤②③口 |--③-|
口③①口 |--④-|
③⑦⑥口 |⑤-⑥⑦|
11
口口口口 |①-②③|
⑦口口⑥ |④⑤⑥⑦|
⑤口①④
③口口②

⑨⑪⑩⑧
口⑬⑫口
口⑮⑭口 |⑧⑨⑩⑪|
口口口口 |⑫⑬⑭⑮|
12
③口口④ |①--②|
③口⑤② |--③-|
口口口⑥ |--④-|
口口①口 |⑤-⑥-|
13
③口口③ |①--②|
口④⑤② |--③-|
①②口口 |--④-|
④口①⑤ |⑤---|
14
口口口③ |①--②|
口口口③ |--③-|
口②口口
口①口口

④口口口
⑤口口口
口口口口 |--④-|
口⑦⑥口 |⑤-⑥⑦|
15
口口口口 |①-②③|
⑦口口⑥ |④⑤⑥⑦|
⑤口①④
③口口②

⑨⑪⑩⑧
口⑬⑫口
口⑮⑭口 |⑧⑨⑩⑪|
口口口口 |⑫⑬⑭⑮|
16
③口口④ |①--②|
③口⑤② |--③-|
口口口⑥ |--④-|
口口①口 |⑤-⑥-|
17
口③口④ |①--②|
③口④② |--③-|
①②口口 |-④--|
⑤口①⑤ |⑤---|
18
口口⑤⑤ |①-②-|
口④口口 |③-④⑤|
口③②口
口①①口

⑧⑧口口
⑥口⑦口
⑥口口口 |-⑥-⑦|
⑨⑨口口 |⑧-⑨-|
19
⑨⑨⑤⑤ |①-②-|
⑥④⑦口 |③-④⑤|
⑥③②口 |-⑥-⑦|
⑧⑧①口 |⑧-⑨-|
20
口口④口 |①-②-|
口口口④ |③-④-|
口③②口
口口①口

口⑦口⑥
口口口口
⑤口口口 |-⑤-⑥|
口⑤⑧口 |⑦-⑧-|
21
①口③口 |①--②|
②①②③ |--③-|
③②①②
口③口①

⑥④口④
口⑤⑥口
口⑥⑤口 |-④--|
④口④⑥ |⑤-⑥-|
22
⑧④⑤⑤ |①-②-|
①⑧口③ |③-④⑤|
⑨⑥口② |-⑥-⑦|
⑥⑨⑦口 |⑧-⑨-|
23
⑨④⑤⑤ |①-②-|
①⑨口③ |③-④⑤|
⑧⑥口② |-⑥-⑦|
⑥⑧⑦口 |⑧-⑨-|
24
⑧④⑤⑤ |①-②-|
①⑧口③ |③-④⑤|
⑨⑥口② |-⑥-⑦|
⑥⑨⑦口 |⑧-⑨-|
25
口②④口 |①--②|
①⑤⑥③ |--③-|
口口②口 |--④-|
③口口① |⑤-⑥-|
26
①口口① |①---|
口口③口 |----|
口④口口 |--②-|
②口口口 |③-④-|
27
②口①口 |①---|
口③口① |--②③|
⑤口④口 |④---|
口口口口 |--⑤-|
28
口③④口 |①---|
①口口② |②-③④|
口⑧⑨⑤ |--⑤-|
口⑥⑦口 |⑥⑦⑧⑨|
29
①③⑤⑦ |①②③④|
②④⑥⑧ |⑤⑥⑦⑧|
口口口口
口口口口

口口口口
⑫口口口
口⑪⑩口 |⑨-⑩⑪|
⑨口口口 |--⑫-|
30
口①①口 |①--②|
口②②口 |--③-|
口③③口
口口口口

⑪⑩⑨⑧
口口口口
口口口口 |④⑤⑥⑦⑧⑨⑩⑪|
⑦⑥⑤④ |----|
31
口口口口 |①--②|
①②③口 |--③-|
①②③口
口口口口

口口口口
⑥口口口
⑤口口口 |④--⑤|
④口口④ |--⑥-|
32
②②①① |①--②|
口⑦⑥口 |--③-|
口⑤④口 |④-⑤-|
口③口口 |⑥-⑦-|
33
口④④口 |①--②|
③⑤⑤③ |--③-|
②⑥⑥② |④--⑤|
①口口① |--⑥-|
34
②口口① |①--②|
口③③口 |--③-|
③口⑥③ |--④⑤|
①⑤④② |⑥---|
35
①①①① |①---|
口口口口 |②---|
口口口②
口口口口

⑥口⑥口
③⑤口④
口④③口 |③--④|
口口口口 |⑤-⑥-|
36
口⑥口⑥ |①---|
④口⑤③ |②---|
②③④口 |③--④|
①口①口 |⑤-⑥-|
37
口口口⑥ |①---|
③⑤⑥④ |②---|
口④③② |③--④|
口①口① |⑤-⑥-|
38
口③口口 |①--②|
③口口口 |--③-|
①口②口
口①口②

口口口口
口口口口
口口口⑤ |----|
口口口④ |--④⑤|
39
③口口口 |①---|
口④口① |②-③④|
口口口口
口口②口

口口口口
口口⑥口
口口⑤口 |⑤---|
口⑦⑧口 |⑥-⑦⑧|
40
口口③口 |①---|
口④口口 |②-③④|
口②口口
口口口①

口口口口
⑥口口口
⑤口口口 |⑤---|
⑦口口⑦ |⑥-⑦-|
41
①口口① |①--②|
口口②⑥ |--③-|
⑤②口口 |--④-|
口③③④ |⑤-⑥-|
42
①④③② |①-②③|
口⑫⑪口 |④-⑤⑥|
⑧⑩⑨口 |⑦-⑧-|
⑤⑥⑦口 |⑨⑩⑪⑫|
43
①①①① |①---|
口口口口 |②---|
口口口②
口口口口

⑥口⑥口
③⑤口④
口④③口 |③--④|
口口口口 |⑤-⑥-|
44
口⑥口⑥ |①---|
④口⑤③ |②---|
②③④口 |③--④|
①口①口 |⑤-⑥-|
45
口口口⑥ |①---|
③⑤⑥④ |②---|
口④③② |③--④|
口①口① |⑤-⑥-|
46
口③口口 |①--②|
③口口口 |--③-|
①⑤②口 |----|
口①④② |--④⑤|
47
口③口口 |①--②|
③口①口 |--③-|
口口②口
口口口口

口口④④
口口⑤⑤
⑥口口口 |--④-|
⑥口口口 |⑤-⑥-|
48
②④④口 |①--②|
④③口④ |--③-|
口①③口 |--④-|
口①⑤② |--⑤-|
49
③口口③ |①--②|
口③③口 |--③-|
②口口② |----|
口①口口 |----|
50
口口口口 |①---|
口口口口 |②---|
口口口口
口②①口

⑧④③⑦
口口口口
⑥口口⑤ |③④⑤⑥|
口⑩⑨口 |⑦⑧⑨⑩|
51
口③③口 |①--②|
③口①③ |--③-|
口口②口
口口口口

口口口口
口口⑥口
口⑦口口 |--④-|
口⑤④口 |⑤-⑥⑦|
52
③口口③ |----|
②口口② |----|
①口口① |①--②|
口口口口 |--③-|
53
口③②口 |①--②|
③口②口 |--③-|
②①③口
①口①口

④口口⑤
口⑤口④
口⑤口④ |-④--|
口口口口 |⑤---|
54
口口口口 |①---|
口口③口 |----|
口②口口 |----|
①①①① |--②③|
55
口①口口 |①---|
口口口口 |----|
口口口口 |----|
口口口口 |----|

不確定度: 0

最終更新:2016年04月11日 22:31