エクストラ・マジック・アワー
AKINO with bless4

EXTREME

Level: 9
BPM: 180
Notes: 539

1
口口口口 |----|
口口口口 |----|
口口口口 |----|
口口口口 |----|
2
口口口口 |①-②-|
⑥口⑦口 |③-④-|
⑤口⑧口 |⑤-⑥-|
①②④③ |⑦-⑧-|
3
①②④③ |①-②-|
口⑥口⑦ |③-④-|
口⑤口⑧ |⑤-⑥-|
口口口口 |⑦-⑧-|
4
口口口口 |①-②-|
口口口口 |③---|
口口③口 |----|
①②口口 |----|
5
①②③④ |----|
口口口⑤ |----|
口口口⑥ |①②③④|
口口⑧⑦ |⑤⑥⑦⑧|
6
口口口口 |①②③④|
④⑤⑥口 |⑤⑥⑦⑧|
③⑧⑦口 |----|
②①口口 |----|
7
口②口口 |①-②-|
口口③② |③-④-|
③④口口
口①①④

口口⑤口
⑥⑤口口
口口⑦⑥ |⑤---|
口⑦口口 |⑥-⑦-|
8
②口口① |--①-|
口口口口 |②---|
口口口口 |----|
①口口② |----|
9
口口口口 |①②③-|
③口口④ |--④⑤|
⑤口口② |⑥---|
①口口⑥ |----|
10
①②②① |①---|
口②②③ |②-③-|
⑥①①口 |④-⑤-|
⑤④口口 |--⑥-|
11
⑫口⑤⑨ |①-②-|
⑥⑧口③ |③-④-|
口①④⑪ |⑤⑥⑦⑧|
⑩口⑦② |⑨⑩⑪⑫|
12
口口口口 |--①-|
口口口④ |②-③-|
②①⑦⑥ |④-⑤-|
口口⑤③ |--⑥⑦|
13
⑤⑥②口 |①-②-|
口④③口 |③-④-|
口①口口 |⑤-⑥-|
口口⑧⑦ |⑦-⑧-|
14
口口口① |--①-|
④口②口 |②-③-|
口⑥口③ |④-⑤-|
⑤口口口 |--⑥-|
15
⑩口①⑦ |①-②-|
口⑥⑨② |③-④-|
⑧⑫③⑤ |⑤⑥⑦⑧|
口④口⑪ |⑨⑩⑪⑫|
16
③②①③ |①---|
②口口① |--②-|
口口口口 |----|
口口口口 |③---|
17
口口口口 |①-②-|
口②①口 |----|
②口口① |----|
口②①口 |----|
18
口口口⑤ |①-②-|
口口口⑥ |③-④-|
口④③口 |--⑤-|
口②①口 |⑥---|
19
口口口口 |----|
③③③口 |①---|
②②口口 |②---|
①口口口 |③---|
20
①①①① |①---|
口口口口 |--②-|
口口口口 |③---|
口口③② |----|
21
口口口口 |①---|
口口口口 |②---|
④③口口 |③---|
①②口口 |④---|
22
口口口⑤ |①-②-|
口口口⑥ |③-④-|
口④③口 |--⑤-|
口②①口 |⑥---|
23
口口口口 |----|
③③③口 |①---|
②②口口 |②---|
①口口口 |③---|
24
①①①① |①---|
口口口口 |--②-|
口口口口 |③---|
口口③② |----|
25
⑦口⑤⑦ |①②③④|
⑦④③⑦ |⑤-⑥-|
口②①口 |--⑦-|
⑥口口⑥ |----|
26
口口口⑤ |①-②-|
口口口⑥ |③-④-|
口④③口 |--⑤-|
口②①口 |⑥---|
27
口口口口 |①-②-|
⑦⑦⑦⑧ |③-④-|
⑤⑤口⑥ |⑤-⑥-|
③①②④ |⑦-⑧-|
28
①①①① |①---|
口口口口 |②-③-|
③⑥⑤④ |④-⑤-|
⑦口②⑦ |⑥-⑦-|
29
口①②口 |--①-|
①口口② |②---|
口口口口 |----|
口口口口 |----|
30
①口⑦⑥ |①-②-|
口②口⑤ |③-④-|
口口③口 |--⑤-|
口口口④ |⑥-⑦-|
31
①④④口 |--①-|
②口口口 |②---|
口口口口 |③---|
口③③口 |④---|
32
②④④① |①---|
③②①③ |②---|
③①②③ |③---|
①⑤⑤② |④-⑤-|
33
②口口① |--①-|
口口口口 |②---|
口②①口 |----|
口口口口 |----|
34
口口口口 |①---|
口口口口 |----|
口④③口 |--②-|
①②口① |③-④-|
35
②②①① |①---|
③③口口 |②---|
④④口口 |③---|
口口口口 |④---|
36
口口口口 |①---|
④口口② |②-③-|
⑤口口③ |--④-|
①①口口 |⑤---|
37
②口口① |----|
口口口口 |----|
口①②口 |①---|
口口口口 |②---|
38
口②②③ |①---|
②口④② |②---|
口⑥口口 |③-④-|
①⑤口① |⑤-⑥-|
39
口④口口 |①-②-|
③⑧⑥⑤ |③-④-|
⑦口口口 |⑤-⑥-|
口口②① |⑦-⑧-|
40
①口口① |①---|
口④③口 |--②-|
口⑥⑤口 |----|
②口口② |③④⑤⑥|
41
口②①口 |①-②-|
②口口① |----|
口口口口 |③---|
④口口③ |④---|
42
①②②① |①---|
口②②口 |②---|
口①①口
口口口口

⑥口口⑥
⑥口口⑥
口口口口 |③-④-|
口⑤④③ |⑤-⑥-|
43
口③口口 |--①-|
口口④口 |②---|
口②①⑤ |③-④-|
⑥⑥⑥⑥ |⑤-⑥-|
44
⑤口口⑥ |--①-|
④①⑥口 |②---|
③⑥②口 |③-④-|
⑥口口口 |⑤-⑥-|
45
口口口口 |--①-|
口口⑤① |②---|
口④口② |--③-|
口口③口 |④-⑤-|
46
⑤①②⑤ |①---|
口⑤⑤口 |②---|
①口口② |③-④-|
③④④③ |--⑤-|
47
口口口口 |--①-|
口口口① |②---|
②④口⑥ |③-④-|
③口⑤口 |⑤-⑥-|
48
口①①口 |--①-|
⑤②②③ |②---|
口口口口 |③-④-|
④口口⑥ |⑤-⑥-|
49
①②③口 |--①-|
⑤口口⑤ |②-③-|
口口口口 |④---|
口④④口 |⑤---|
50
①②②① |①---|
口②②口 |②---|
口①①口
口口口口

⑥口口⑥
⑥口口⑥
⑤口口③ |③-④-|
⑤④④③ |⑤-⑥-|
51
口②①口 |--①-|
口④④口 |②---|
⑤⑤③③ |③-④-|
⑥⑥⑥⑥ |⑤-⑥-|
52
①口口① |----|
口口口口 |①---|
⑤③②④ |②③④⑤|
口⑦⑥⑧ |⑥⑦⑧-|
53
⑤④①② |①-②-|
④⑥③① |③---|
口口口口 |④-⑤-|
口口口口 |⑥---|
54
口⑦⑥口 |①---|
口口口口 |②-③-|
①④②① |④-⑤-|
①⑤③① |⑥-⑦-|
55
⑥口⑨⑤ |①②③④|
口⑥⑤⑧ |⑤-⑥-|
④口⑦③ |--⑦-|
②口口① |⑧-⑨-|
56
⑦⑦⑦⑦ |①-②-|
①⑥③⑤ |③-④-|
②口口口 |--⑤-|
④④④④ |⑥-⑦-|
57
口口⑥⑤ |--①-|
①口口口 |②-③-|
③③③③ |--④-|
④口口② |⑤-⑥-|
58
口口口口 |①---|
①①①① |----|
口口口口 |②---|
口口②口 |----|
59
口口口口 |①---|
口⑥⑤口 |----|
口④③口 |②---|
②①口口 |③④⑤⑥|
60
口②①口 |--①-|
②⑥⑤① |②-③-|
④⑤⑥③ |④---|
口④③口 |⑤-⑥-|
61
口①①口 |--①-|
①⑤⑤① |----|
口口口② |②-③-|
口口③④ |④-⑤-|
62
口口口② |--①-|
口⑧⑦口 |--②-|
⑥①①⑤ |③④⑤⑥|
口④③口 |⑦⑧--|
63
①②④④ |①-②-|
①口口口 |③-④-|
口口口口
口口口③

口口口口
⑨⑧⑦⑥
口口⑪⑩ |⑤-⑥⑦|
⑤⑤口口 |⑧⑨⑩⑪|
64
④②口口 |①-②-|
口口口口 |③-④-|
口①口口
口口口③

口口口⑤
口⑥⑨口
⑧⑫口⑪ |⑤⑥⑦⑧|
口⑩⑦口 |⑨⑩⑪⑫|
65
口③①口 |①---|
③口口① |②-③-|
④⑤口口 |----|
口口口② |--④⑤|
66
口口口口 |①---|
口口口口 |----|
口口①口 |----|
口口口口 |----|
67
口口口口 |----|
②口口② |----|
口口口口 |---①|
口①①口 |---②|

不確定度: 0

最終更新:2016年04月11日 22:32