過食性:アイドル症候群
スズム feat.GUMI & MAYU

EXTREME

Level: 10
BPM: 200
Notes: 900

1
口口口口 |----|
口口口口 |----|
口口口口 |----|
口口口口 |----|
2
⑥⑤③① |①-②-|
口⑦口口 |③-④-|
⑨口⑧口 |⑤-⑥⑦|
口口④② |⑧-⑨-|
3
⑦口④② |①-②-|
⑦口⑥⑧ |③-④-|
口⑤⑥⑧ |⑤-⑥-|
口⑤③① |⑦-⑧-|
4
⑥⑤③① |①-②-|
口⑦口口 |③-④-|
⑨口⑧口 |⑤-⑥⑦|
口口④② |⑧-⑨-|
5
口口④② |①-②-|
⑧口⑥⑦ |③-④-|
⑧⑤⑦⑥ |⑤-⑥-|
⑤口③① |⑦-⑧-|
6
⑥⑤③① |①-②-|
口⑦口口 |③-④-|
⑨口⑧口 |⑤-⑥⑦|
口口④② |⑧-⑨-|
7
⑦口④② |①-②-|
⑦口⑥⑧ |③-④-|
口⑤⑥⑧ |⑤-⑥-|
口⑤③① |⑦-⑧-|
8
⑥⑤③① |①-②-|
口⑦口口 |③-④-|
⑨口⑧口 |⑤-⑥⑦|
口口④② |⑧-⑨-|
9
⑧⑦④② |①-②-|
口口⑥口 |③-④-|
口⑤口口 |⑤⑥⑦-|
⑨口③① |⑧-⑨-|
10
口口口口 |①---|
口④口口 |②-③-|
口口③② |--④-|
⑤口口① |--⑤-|
11
口口口口 |----|
口③口口 |----|
口①②口 |--①-|
口口口口 |②-③-|
12
④口③② |①---|
⑤口①口 |②-③-|
口口口口 |--④-|
口口口口 |--⑤-|
13
口口口口 |----|
口口口口 |----|
③口②① |--①-|
口口口口 |②-③-|
14
口口口④ |①---|
口③②⑤ |②-③-|
口①口口 |--④-|
口口口口 |--⑤-|
15
口口口口 |----|
口①②口 |----|
口③口口 |--①-|
口口口口 |②-③-|
16
口口口④ |①---|
口口⑤口 |②-③-|
口口①口 |--④-|
②③口口 |--⑤-|
17
①⑤⑤口 |①-②-|
③⑧⑦③ |③-④-|
②⑩⑨② |⑤-⑥-|
④⑥⑥④ |⑦⑧⑨⑩|
18
①④④① |①---|
③口口② |②-③-|
③口口② |--④-|
口⑤⑤口 |--⑤-|
19
③口⑦口 |--①-|
口⑧口口 |②-③-|
口⑥⑤④ |④⑤⑥-|
①口口② |⑦-⑧-|
20
口④④口 |①---|
②口口③ |②-③-|
②⑤⑤③ |--④-|
口①①口 |--⑤-|
21
口⑥⑤④ |--①-|
口口③⑦ |②-③-|
⑧口口② |④⑤⑥-|
口口①口 |⑦-⑧-|
22
口⑤④口 |①---|
口⑤④口 |②-③-|
口③②口 |--④-|
③①①② |--⑤-|
23
①口⑦② |--①-|
③⑧口口 |②-③-|
口⑥⑤④ |④⑤⑥-|
口口口口 |⑦-⑧-|
24
②②⑤口 |①---|
口口③③ |②-③-|
口口⑤口 |--④-|
④①①④ |--⑤-|
25
③②口① |①---|
口④④口 |②-③-|
③②口① |--④-|
口口口口 |----|
26
口口口口 |①---|
口口口口 |----|
口口口口 |----|
①①①① |----|
27
口口②① |----|
口口口口 |----|
口口口口 |----|
口口口口 |①-②-|
28
②①口③ |①---|
口口口口 |--②-|
③②①口 |----|
口口口口 |③---|
29
口口口口 |----|
①③口② |----|
口口口口 |--①-|
口口口口 |②-③-|
30
口口①口 |①---|
口口口口 |----|
口口①口 |----|
口口口口 |----|
31
口口口口 |----|
口口口口 |----|
口②①口 |----|
口口口口 |①-②-|
32
口口口① |①-②-|
④①口口 |③-④-|
②口口③
口④②③

⑤⑦口口
口⑦⑤⑥
口⑥口口 |--⑤-|
口口口口 |⑥-⑦-|
33
口口口① |①---|
口口口口 |②③④⑤|
⑥口①⑥ |----|
⑤④③② |⑥---|
34
口口①口 |①-②-|
②④口④ |③-④-|
口口③口
口④口④

⑤⑥⑦口
口口口口
口口口口 |--⑤-|
口口口口 |⑥-⑦-|
35
口⑦⑥⑤ |①-②-|
④③④口 |③-④-|
①口口② |--⑤-|
④口④口 |⑥-⑦-|
36
口口口口 |①-②-|
④⑦④③ |③-④-|
②⑥口口 |--⑤-|
④⑤④① |⑥-⑦-|
37
④口①⑤ |--①-|
口口②口 |②-③-|
口口③口 |④---|
口④⑤口 |⑤---|
38
④口④口 |①-②-|
口②口口 |③-④-|
①④③④ |--⑤-|
⑤⑥⑦口 |⑥-⑦-|
39
口①口口 |①-②-|
⑦④②④ |③-④-|
④③④口 |--⑤-|
⑤口口⑥ |⑥-⑦-|
40
口口口① |①-②-|
口口①③ |--③-|
④口⑤② |④-⑤-|
⑥④②⑤ |--⑥-|
41
②①①② |①-②-|
④③③④ |③-④-|
⑥⑤⑤⑥ |⑤-⑥-|
⑧⑦⑦⑧ |⑦-⑧-|
42
口④④① |①-②-|
④③②④ |③-④-|
口口口口 |--⑤-|
⑦⑥⑤口 |⑥-⑦-|
43
④⑤④① |①-②-|
⑦⑥口口 |③-④-|
④③④② |--⑤-|
口口口口 |⑥-⑦-|
44
④口口④ |①-②-|
口⑦③口 |③-④-|
④⑥口④ |--⑤-|
②⑤口① |⑥-⑦-|
45
④口①⑤ |--①-|
口口②口 |②-③-|
口口③口 |④---|
口④⑤口 |⑤---|
46
⑥口⑦⑤ |①-②-|
口②口口 |③-④-|
①④④③ |--⑤-|
④口口④ |⑥-⑦-|
47
口①口口 |①-②-|
①③②④ |③-④-|
③⑦④② |--⑤-|
口口⑥⑤ |⑥-⑦-|
48
口⑥⑥① |①-②-|
口口口③ |③-④-|
②口口口 |--⑤-|
④⑤⑤口 |--⑥-|
49
口⑤⑤口 |--①-|
②①①② |②-③-|
④③③④ |④---|
口⑤⑤口 |⑤---|
50
②口口⑤ |①-②-|
口口①⑥ |③-④-|
④口③⑦ |⑤⑥⑦⑧|
⑨⑩口⑧ |⑨-⑩-|
51
⑤③④口 |①-②-|
⑥口②口 |③-④-|
⑦①口口 |⑤⑥⑦⑧|
⑧口⑩⑨ |⑨-⑩-|
52
口④口⑤ |①-②-|
口口③⑥ |③-④-|
口②①⑦ |⑤⑥⑦⑧|
⑨⑩口⑧ |⑨-⑩-|
53
⑧⑭①⑦ |①②③④|
⑥⑩⑤⑪ |⑤⑥⑦⑧|
②④⑮⑨ |⑨⑩⑪⑫|
⑫⑯③⑬ |⑬⑭⑮⑯|
54
口口①⑤ |①-②-|
口口口⑥ |③-④-|
②④口⑦ |⑤⑥⑦⑧|
⑨⑩③⑧ |⑨-⑩-|
55
⑤口④口 |①-②-|
⑥①口口 |③-④-|
⑦③②口 |⑤⑥⑦⑧|
⑧口⑩⑨ |⑨-⑩-|
56
口②⑨口 |①-②-|
口⑥⑤③ |③-④-|
⑩⑧⑦① |⑤⑥⑦⑧|
口④口口 |⑨-⑩-|
57
①③④② |①---|
口口口口 |②---|
口口口口 |③---|
②④③① |④---|
58
①⑨⑧⑦ |①-②③|
⑥④③② |④-⑤-|
⑩口口口 |⑥-⑦⑧|
⑤口口口 |⑨-⑩-|
59
①口口口 |①-②③|
⑤口口口 |④-⑤-|
口口口口
口④③②

⑩口口口
口口口口
口⑨⑧⑦ |⑥-⑦⑧|
⑥口口口 |⑨-⑩-|
60
⑩④③② |①-②③|
⑥口口口 |④-⑤-|
①口口口 |⑥-⑦⑧|
⑤⑨⑧⑦ |⑨-⑩-|
61
口口口口 |①---|
④③①② |②---|
③④②① |③---|
口口口口 |④---|
62
⑦⑧⑨口 |①-②③|
口⑩⑤⑥ |④-⑤-|
⑩口⑥⑤ |⑥-⑦⑧|
①④③② |⑨-⑩-|
63
⑦⑧⑨口 |①-②③|
①⑩⑤⑥ |④-⑤-|
⑩①⑥⑤ |⑥-⑦⑧|
口④③② |⑨-⑩-|
64
口⑦⑥口 |①-②-|
口⑨⑧口 |③-④-|
口⑤⑩口 |⑤-⑥⑦|
①③④② |⑧⑨⑩-|
65
①口口③ |①-②-|
口口口口 |③-④-|
⑥口口⑥ |⑤---|
②⑤⑤④ |⑥---|
66
口①①口 |①-②-|
①口②① |③-④-|
口③口口
口口④④

⑥⑧口口
口口口口
口口口口 |⑤-⑥-|
⑤⑦口口 |⑦-⑧-|
67
⑧⑨⑩① |①-②-|
②④③口 |③-④-|
口④口口 |⑤⑥⑦-|
口⑦⑥⑤ |⑧⑨⑩-|
68
口⑧⑧⑥ |①-②-|
④口③① |③-④-|
②④口口 |⑤-⑥-|
口口⑦⑤ |⑦-⑧-|
69
⑤口口⑥ |①-②-|
口②③④ |③-④-|
②③④① |⑤---|
口⑤⑥口 |⑥---|
70
口口①口 |①-②-|
口②口口 |③-④-|
口口③口
④④口口

口口⑧⑥
口口口口
口口口口 |⑤-⑥-|
口口⑦⑤ |⑦-⑧-|
71
①⑩⑨⑧ |①-②-|
③口④② |③-④-|
口口④口 |⑤⑥⑦-|
⑤⑥⑦口 |⑧⑨⑩-|
72
口口口⑩ |①②③④|
④口口③ |⑤---|
②⑦⑥① |⑥⑦⑧⑨|
口⑨⑧⑤ |⑩---|
73
①②①口 |①-②-|
口③④③ |③-④-|
⑤⑥⑤口 |⑤-⑥-|
口⑦⑧⑦ |⑦-⑧-|
74
⑥⑧口① |①-②-|
②④口④ |③-④-|
④口④③ |⑤-⑥-|
⑤⑦口口 |⑦-⑧-|
75
⑧⑨⑩① |①-②-|
②④口④ |③-④-|
口④③④ |⑤⑥⑦-|
口⑦⑥⑤ |⑧⑨⑩-|
76
口⑧⑧⑥ |①-②-|
③口②④ |③-④-|
①④④口 |⑤-⑥-|
④口⑦⑤ |⑦-⑧-|
77
⑤口口⑥ |①-②-|
口②③④ |③-④-|
②③④① |⑤---|
口⑤⑥口 |⑥---|
78
口④⑧⑥ |①-②-|
④口③④ |③-④-|
②口④① |⑤-⑥-|
口口⑦⑤ |⑦-⑧-|
79
①⑩⑨⑧ |①-②-|
③①②④ |③-④-|
③④④② |⑤⑥⑦-|
⑤⑥⑦④ |⑧⑨⑩-|
80
⑥口口⑥ |①-②-|
口②③口 |③-④-|
口口口① |--⑤-|
④⑤⑤口 |--⑥-|
81
口口口口 |①-②-|
④③③④ |③-④-|
②①①②
口口口口

口⑦⑥口
口口口口
口⑪⑩口 |⑤-⑥⑦|
⑨⑤⑤⑧ |⑧⑨⑩⑪|
82
④口口① |①-②-|
口③②口 |③-④-|
口口口口
口口口口

口口口⑥
口口口口
口口口口 |--⑤-|
口⑤⑤口 |--⑥-|
83
⑨口口口 |①-②-|
⑤⑨口⑥ |③-④-|
⑦②④⑧ |⑤⑥⑦⑧|
①口口③ |⑨---|
84
⑥⑤③① |①-②-|
口⑦口口 |③-④-|
⑨口⑧口 |⑤-⑥⑦|
口口④② |⑧-⑨-|
85
⑦口④② |①-②-|
⑦口⑥⑧ |③-④-|
口⑤⑥⑧ |⑤-⑥-|
口⑤③① |⑦-⑧-|
86
⑥⑤③① |①-②-|
口⑦口口 |③-④-|
⑨口⑧口 |⑤-⑥⑦|
口口④② |⑧-⑨-|
87
口口④② |①-②-|
⑧口⑥⑦ |③-④-|
⑧⑤⑦⑥ |⑤-⑥-|
⑤口③① |⑦-⑧-|
88
⑥⑤③① |①-②-|
口⑦口口 |③-④-|
⑨口⑧口 |⑤-⑥⑦|
口口④② |⑧-⑨-|
89
⑦口④② |①-②-|
⑦口⑥⑧ |③-④-|
口⑤⑥⑧ |⑤-⑥-|
口⑤③① |⑦-⑧-|
90
⑥⑤③① |①-②-|
口⑦口口 |③-④-|
⑨口⑧口 |⑤-⑥⑦|
口口④② |⑧-⑨-|
91
⑧⑦④② |①-②-|
口口⑥口 |③-④-|
口⑤口口 |⑤⑥⑦-|
⑨口③① |⑧-⑨-|
92
口口口口 |①---|
口④口口 |②-③-|
口口③② |--④-|
⑤口口① |--⑤-|
93
口口口口 |----|
口③口口 |----|
口①②口 |--①-|
口口口口 |②-③-|
94
④口③② |①---|
⑤口①口 |②-③-|
口口口口 |--④-|
口口口口 |--⑤-|
95
口口口口 |----|
口口口口 |----|
③口②① |--①-|
口口口口 |②-③-|
96
口口口④ |①---|
口③②⑤ |②-③-|
口①口口 |--④-|
口口口口 |--⑤-|
97
口口口口 |----|
口①②口 |----|
口③口口 |--①-|
口口口口 |②-③-|
98
口口口④ |①---|
口口⑤口 |②-③-|
口口①口 |--④-|
②③口口 |--⑤-|
99
①⑤⑤口 |①-②-|
③⑧⑦③ |③-④-|
②⑩⑨② |⑤-⑥-|
④⑥⑥④ |⑦⑧⑨⑩|
100
①口口① |①---|
②口口② |--②-|
③口口③ |----|
口口口口 |③---|
101
口口口口 |--①-|
口口口口 |----|
口口口口 |----|
①口口① |----|

不確定度: 0

最終更新:2015年02月20日 22:45