白い雪のプリンセスは
のぼる↑

EXTREME

Level: 9
BPM: 200
Notes: 729

1
口①口口 |----|
①口口口 |----|
口口口口 |----|
口口口口 |--①-|
2
口⑥④口 |--①-|
⑥口②④ |②-③-|
口③⑤口 |④---|
口①口口 |⑤-⑥-|
3
口⑥④口 |--①-|
⑥口②④ |②-③-|
口③⑤口 |④---|
口①口口 |⑤-⑥-|
4
口⑥④口 |--①-|
⑥口②④ |②-③-|
口③⑤口 |④---|
口①口口 |⑤-⑥-|
5
口⑥④口 |--①-|
⑥口②④ |②-③-|
口③⑤口 |④---|
口①口口 |⑤-⑥-|
6
口口⑥口 |--①-|
口⑤②⑥ |②-③-|
口③口④ |④---|
①口④口 |⑤-⑥-|
7
口⑥口口 |--①-|
⑥口③口 |②-③-|
④②①口 |④---|
口④口⑤ |⑤-⑥-|
8
口口⑥口 |--①-|
口口②⑥ |②-③-|
⑤③口④ |④---|
①口④口 |⑤-⑥-|
9
口③⑥口 |--①-|
③口口⑥ |②-③-|
口④①口 |--④-|
口②⑤口 |⑤-⑥-|
10
口⑥口口 |--①-|
⑥②口⑤ |②-③-|
④口③口 |④---|
口④口① |⑤-⑥-|
11
口口⑥口 |--①-|
⑤③②⑥ |②-③-|
口①口④ |④---|
口口④口 |⑤-⑥-|
12
口⑥口口 |--①-|
⑥口①口 |②-③-|
④②③口 |④---|
口④口⑤ |⑤-⑥-|
13
口⑥③口 |--①-|
⑥口口③ |②-③-|
口①④口 |--④-|
口⑤②口 |⑤-⑥-|
14
④口口② |--①-|
口口⑤口 |②---|
⑥①③口 |③-④-|
口口⑦口 |⑤⑥⑦-|
15
口⑤①口 |①-②③|
口②口⑦ |④-⑤-|
口⑧⑩③ |⑥-⑦⑧|
⑥④口⑨ |⑨-⑩-|
16
①⑤⑥② |①-②-|
口④口⑥ |③---|
①口口② |④---|
口口③口 |⑤-⑥-|
17
⑤⑥⑥④ |--①-|
口⑤④口 |②-③-|
③③②② |④-⑤-|
①①口口 |⑥---|
18
口⑦⑧口 |①-②-|
⑥口口① |③-④-|
⑤口口② |⑤-⑥-|
口④③口 |⑦-⑧-|
19
口⑤口口 |①-②-|
⑤①④口 |③-④-|
口③②口 |----|
口口口口 |--⑤-|
20
口⑦口口 |--①-|
⑥口口① |②-③-|
⑤口口② |④-⑤-|
口④③口 |⑥-⑦-|
21
口口①口 |①-②-|
口②口口 |③-④-|
口口③口
④④口口

⑤口⑥口
⑤口口⑥
口口口口 |--⑤-|
口口口口 |--⑥-|
22
口④口口 |----|
④②③口 |①---|
口②③口 |②-③-|
口口①① |--④-|
23
口口④口 |----|
口③②④ |①---|
口③②口 |②-③-|
①①口口 |--④-|
24
口①口口 |--①-|
②口口⑦ |②-③-|
③口口⑥ |④-⑤-|
口④⑤口 |⑥-⑦-|
25
①口口口 |①---|
口口②口 |--②-|
口①口口 |----|
口口口② |----|
26
①②③④ |①-②-|
口口口口 |③-④-|
口口口口 |⑤-⑥-|
⑧⑦⑥⑤ |⑦-⑧-|
27
口⑤口口 |①-②-|
⑤③①口 |③-④-|
口④②口 |----|
口口口口 |--⑤-|
28
口口⑥口 |--①-|
口⑤⑦① |②-③-|
④口②口 |④-⑤-|
口③口口 |⑥-⑦-|
29
口①口⑥ |①-②-|
口口口② |③-④-|
口③⑤⑥ |--⑤-|
口口④⑤ |--⑥-|
30
④口②口 |----|
口②①口 |①---|
④①③口 |②-③-|
口③口口 |--④-|
31
口口②口 |----|
口②①口 |①---|
口①③口 |②-③-|
④③口④ |--④-|
32
口③口口 |----|
口②口口 |①---|
口①口口 |②---|
口口口口 |③---|
33
口口④口 |①---|
口口③口 |②---|
①口②① |③---|
口口口口 |④---|
34
口④口口 |①---|
①③口① |②---|
口②口口 |③---|
口口口口 |④---|
35
①口口口 |①---|
口口口② |②---|
③口口口 |③---|
口口口④ |④---|
36
口口口口 |①---|
口口口④ |②---|
口①口③ |③---|
口①②口 |④---|
37
口②①口 |①---|
③④口口 |②---|
④口口口 |③---|
口口口口 |④---|
38
口口口口 |①---|
口口口④ |②---|
口④①③ |③---|
口①②口 |④---|
39
口②①口 |①---|
④②①口 |②-③-|
⑥⑦⑤口 |④-⑤-|
口口口③ |⑥-⑦-|
40
口口口口 |①---|
口口口① |②---|
口口口② |③---|
口④③口 |④---|
41
口③④口 |①---|
②⑤④口 |②---|
①口口口 |③---|
口口口口 |④-⑤-|
42
口口口口 |①---|
口口口① |②---|
口④①② |③---|
口④③口 |④---|
43
口③④口 |①---|
②②①③ |②---|
①口④口 |③---|
口口口口 |④---|
44
口口口口 |①---|
口④口④ |②---|
口①口③ |③---|
口①②口 |④---|
45
口②①口 |①---|
③口①口 |②---|
④口④口 |③---|
口口口口 |④---|
46
口⑤④口 |①---|
口③口口 |②---|
⑤①口④ |③---④-|
③①②口 |--⑤---|
47
口口口口 |①---|
口口①口 |②-③-|
④②③口 |----|
口②③① |④---|
48
口口口口 |①---|
口口①① |②---|
口⑤④② |③---|
口④③口 |④-⑤-|
49
口③④口 |①---|
②④口口 |②---|
①口口口 |③---|
口口口口 |④---|
50
口口口口 |①---|
口口口① |----|
口①口口 |----|
口口口口 |----|
51
口口口口 |①---|
口④口口 |②---|
③口口口 |③---|
①②口口 |④---|
52
口口①① |①---|
口口口口 |--②-|
口口②口 |③---|
④③口口 |--④-|
53
口口口① |①---|
口口②口 |②---|
口口口③ |③---|
口口④口 |④---|
54
口④口口 |①---|
口③口口 |②---|
口②口口 |③---|
口①口口 |④---|
55
①口口口 |①---|
口口口② |----|
口口③口 |②---|
口口口口 |③---|
56
口口口口 |①---|
②口口口 |----|
口③口口 |②---|
口①口口 |③---|
57
口③④口 |①---|
口口口口 |②-③-|
口口口② |----|
口口①口 |--④-|
58
口口口③ |①---|
口①④口 |②-③-|
口⑤口口 |--④-|
口口②口 |--⑤-|
59
口口口口 |----|
口②口口 |----|
口口①口 |①---|
口口口口 |②---|
60
①①口口 |①---|
口口②口 |--②-|
口③口口 |③---|
口口④口 |--④-|
61
①口口口 |①---|
口②口口 |②---|
口口③口 |③---|
口口口④ |④---|
62
口⑤口④ |①---|
口口③口 |②---|
口②口口 |③---|
①口口口 |④-⑤-|
63
口口①口 |----|
口②口口 |①---|
口口③口 |②---|
口口口口 |③---|
64
口口口口 |①---|
口口口口 |----|
③口口口 |②---|
②①口口 |③---|
65
口口①口 |①---|
口口③口 |②-③-|
口②口口 |----|
口口口口 |----|
66
①口口① |①---|
口口口口 |--②-|
口口口口 |③---|
②③④② |④---|
67
口口口口 |①---|
口③④口 |②---|
口①②口 |③---|
口口口口 |④---|
68
①④④① |①-②-|
⑦口口⑦ |③-④-|
口⑤⑥口 |⑤-⑥-|
口②③口 |⑦---|
69
口口口口 |①---|
口④口口 |②---|
③口口口 |③---|
①②口口 |④---|
70
口口①① |①---|
口⑥口口 |②-③-|
口②③口 |④-⑤-|
⑦④口⑤ |⑥-⑦-|
71
口②①① |①-②-|
④⑥③③ |③-④-|
口口⑤⑤ |⑤-⑥-|
⑧口⑦⑦ |⑦-⑧-|
72
口⑦⑤口 |①-②-|
③⑤⑦② |③-④-|
①③⑥④ |⑤-⑥-|
口①口⑧ |⑦-⑧-|
73
①③②口 |①---|
口③口② |----|
①②③口 |②---|
口口口口 |③---|
74
口口口③ |①---|
口口①口 |②-③-|
口口口①
②①口口

④口口口
④口⑦⑤
⑥⑥口口 |④-⑤-|
口口⑦口 |⑥-⑦-|
75
口口口③ |①-②-|
口①口口 |③-④-|
口⑤口② |----|
口④口口 |--⑤-|
76
口①①口 |①---|
③口口③ |②-③-|
③口②③
口口口口

⑤⑤⑤⑤
口④④口
口口口口 |--④-|
口④④口 |--⑤-|
77
口口口口 |----|
口②口口 |----|
口口①口 |①---|
口口口口 |②---|
78
①①口口 |①---|
②口③口 |②-③-|
口④口⑤ |④-⑤-|
口⑥⑦⑦ |⑥-⑦-|
79
①①口② |①-②-|
③③⑥④ |③-④-|
⑤⑤口⑧ |⑤-⑥-|
⑦⑦口口 |⑦-⑧-|
80
⑧⑧③⑦ |①-②-|
⑥②⑤⑤ |③-④-|
④口③⑦ |⑤-⑥-|
口口①① |⑦-⑧-|
81
口口①口 |----|
③②口口 |①---|
口①③口 |②---|
口口②口 |③---|
82
口口口口 |①---|
⑥④③⑦ |②-③-|
⑥②口① |④-⑤-|
④①口⑤ |⑥-⑦-|
83
①①③口 |①---|
口口③口 |②-③-|
口②口口 |----|
口②口口 |----|
84
③口口③ |①---|
口口口口 |--②-|
②口口② |----|
①口口① |③---|
85
口①②口 |①---|
①⑤⑤② |②---|
口③④口 |③---|
③⑤⑤④ |④-⑤-|
86
①③口口 |--①-|
③④口口 |②---|
②口口口 |③---|
口口⑤⑤ |④-⑤-|
87
口③③① |--①-|
③④④③ |②---|
口③③② |③---|
口④④口 |--④-|
88
①③口口 |--①-|
③口口口 |②---|
②④⑤口 |③---|
口④⑤口 |④-⑤-|
89
②③④② |--①-|
③⑤⑤④ |②---|
①口口口 |③-④-|
⑤口口⑤ |--⑤-|
90
①③口口 |--①-|
③④口口 |②---|
②口口口 |③---|
口口⑤⑤ |④-⑤-|
91
口口③① |--①-|
口口④③ |②---|
口口口② |③---|
⑤⑤口口 |④-⑤-|
92
①③口口 |--①-|
③④⑤口 |②---|
②口口口 |③---|
口口口⑤ |④-⑤-|
93
①口④④ |----|
③③口④ |①---|
口①②② |②-③-|
口口口口 |--④-|
94
①③口口 |--①-|
③④口口 |②---|
②口口口 |③---|
口口⑤⑤ |④-⑤-|
95
口口③① |--①-|
口口④③ |②---|
口口口② |③---|
⑤⑤口口 |④-⑤-|
96
①③口口 |--①-|
③④口口 |②---|
②口口口 |③---|
口口⑤⑤ |④-⑤-|
97
口⑤④口 |--①-|
③⑤④② |②-③-|
①⑤④口 |④-⑤-|
⑥⑥口口 |--⑥-|
98
①③口口 |--①-|
③④口口 |②---|
②口口口 |③---|
口口⑤⑤ |④-⑤-|
99
口口③① |--①-|
口口④③ |②---|
口口口② |③---|
⑤⑤口口 |④-⑤-|
100
①③口口 |--①-|
③④口口 |②---|
②口口口 |③---|
口口⑤⑤ |④-⑤-|
101
口口③① |--①-|
口口④③ |②---|
口口口② |③---|
⑤⑤⑤口 |④-⑤-|
102
①③口口 |--①-|
③④口口 |②---|
②口口口 |③---|
口⑤⑤⑤ |④-⑤-|
103
②口口① |--①-|
口⑤④口 |--②-|
口⑦⑥口 |--③-|
③口口口 |④⑤⑥⑦|
104
口④①⑦ |①-②-|
④口⑦① |③-④-|
②口口③ |⑤-⑥-|
口⑥⑤口 |⑦---|

不確定度: 0

最終更新:2016年04月11日 22:23