prop the world
S-C-U

BASIC

Level: 4
BPM: 130
Notes: 271

1
口口口口 |----|
口口口口 |----|
口口口口 |----|
口口口口 |----|
2
口口口口 |①---|
①②③口 |--②-|
口口口口 |----|
口口口口 |③---|
3
口口口口 |----|
口口口口 |----|
口口口口 |----|
口口口口 |----|
4
口口口口 |①---|
口口口口 |--②-|
口③②① |----|
口口口口 |③---|
5
口口口口 |----|
口口口口 |----|
口口口口 |----|
口口口口 |----|
6
口口口口 |①---|
①②③口 |--②-|
口口口口 |----|
口口口口 |③---|
7
口口口口 |----|
口口口口 |----|
口口口口 |----|
口口口口 |----|
8
口口口口 |①---|
口口口口 |--②-|
口③②① |----|
口口口口 |③---|
9
口口口口 |----|
口口口口 |----|
口口口口 |----|
口口口口 |----|
10
口口口口 |①---|
①②口口 |②---|
③④口口 |③---|
口口口口 |④---|
11
口口口口 |①---|
口口①② |②---|
口口③④ |③---|
口口口口 |④---|
12
①②③④ |①---|
口口口口 |②---|
口口口口 |③---|
口口口口 |④---|
13
口口口口 |①---|
④③②① |②---|
口口口口 |③---|
口口口口 |④---|
14
口口口口 |①---|
口口口口 |②---|
②④口口 |③---|
①③口口 |④---|
15
口口口口 |①---|
口口口口 |②---|
口口④② |③---|
口口③① |④---|
16
口①②口 |①---|
口③④口 |②---|
口口口口 |③---|
口口口口 |④---|
17
口④④口 |①---|
口口口口 |②---|
①③③① |③---|
②口口② |④---|
18
口口口口 |①--②|
②⑥口④ |--③-|
口口口口 |-④--|
①⑤口③ |⑤--⑥|
19
口④口口 |--①-|
口口②口 |-②--|
口③⑤口 |③--④|
口口①口 |--⑤-|
20
口口口口 |①--②|
②⑥口④ |--③-|
口口口口 |-④--|
①⑤口③ |⑤--⑥|
21
口④口口 |--①-|
口口②口 |-②--|
口③⑤口 |③--④|
口口①口 |--⑤-|
22
口口口口 |①--②|
②⑥口④ |--③-|
口口口口 |-④--|
①⑤口③ |⑤--⑥|
23
口④口口 |--①-|
口口②口 |-②--|
口③⑤口 |③--④|
口口①口 |--⑤-|
24
口口口口 |①--②|
②⑥口④ |--③-|
口口口口 |-④--|
①⑤口③ |⑤--⑥|
25
口口⑤口 |--①-|
口口②④ |-②--|
口口⑤口 |③--④|
口口①③ |--⑤-|
26
①①口口 |①---|
②②口口 |--②-|
③③口口 |----|
口口口口 |③---|
27
口口口口 |----|
口口口口 |----|
口口口口 |----|
口口口口 |----|
28
口口①① |①---|
口口②② |--②-|
口口③③ |----|
口口口口 |③---|
29
口口口口 |----|
口③③口 |--①-|
口②②口 |--②-|
口①①口 |--③-|
30
①①口口 |①---|
③③口口 |--②-|
口口口口 |----|
②②口口 |③---|
31
口口口口 |----|
口口口口 |----|
口口口口 |----|
口口口口 |----|
32
口口①① |①---|
口口③③ |--②-|
口口口口 |----|
口口②② |③---|
33
口口口口 |----|
口口口口 |----|
口口口口 |----|
口口口口 |----|
34
①①口口 |①---|
②②口口 |--②-|
③③口口 |----|
口口口口 |③---|
35
口口口口 |----|
口①口口 |--①-|
口②口口 |--②-|
口③口口 |--③-|
36
口口①① |①---|
口口②② |--②-|
口口③③ |----|
口口口口 |③---|
37
口口口口 |----|
口③③口 |--①-|
口②②口 |--②-|
口①①口 |--③-|
38
①①口口 |①---|
③③口口 |--②-|
口口口口 |----|
②②口口 |③---|
39
口口口口 |----|
口①口口 |--①-|
口②口口 |--②-|
口③口口 |--③-|
40
口口①① |①---|
口口③③ |--②-|
口口口口 |----|
口口②② |③---|
41
口③③口 |----|
口②②口 |--①-|
口①①口 |--②-|
口口口口 |--③-|
42
⑥⑦⑧口 |--①-|
⑤口口口 |②-③-|
①②③④ |④-⑤⑥|
口口口口 |-⑦-⑧|
43
口口口口 |--①-|
口口口口 |----|
口口口① |----|
口口口口 |----|
44
⑥⑦⑧口 |--①-|
⑤口口口 |②-③-|
①②③④ |④-⑤⑥|
口口口口 |-⑦-⑧|
45
口口口口 |--①-|
口口口口 |②-③-|
④③②① |④---|
口口口口 |----|
46
⑥⑦⑧口 |--①-|
⑤口口口 |②-③-|
①②③④ |④-⑤⑥|
口口口口 |-⑦-⑧|
47
口口口口 |--①-|
口口口口 |----|
口口口① |----|
口口口口 |----|
48
⑥⑦⑧口 |--①-|
⑤口口口 |②-③-|
①②③④ |④-⑤⑥|
口口口口 |-⑦-⑧|
49
⑤⑤口口 |--①-|
口口⑥口 |②-③-|
④③②① |④-⑤-|
口⑦口口 |⑥-⑦-|
50
④④①① |--①-|
口②⑤口 |②-③-|
口口口口 |--④-|
口⑥③口 |⑤-⑥-|
51
③①①③ |----|
口口口口 |①---|
口②②口 |②---|
口口口口 |③---|
52
口口口口 |----|
口①①口 |①---|
③口口③ |②---|
口②②口 |③---|
53
口口口口 |①---|
口②②口 |②---|
口①①口
口口口口

口③③口
口⑥口口
口⑤口口 |③-④-|
口④口口 |⑤-⑥-|
54
口口口口 |--①-|
口口③口 |②-③-|
④口②④ |----|
口口①口 |④---|
55
④②②④ |①---|
①口口① |②---|
口口口口 |③---|
口③③口 |④---|
56
口口口口 |----|
口口口口 |①---|
③①①③ |②---|
口②②口 |③---|
57
②③③② |①---|
①口口① |②---|
口口口口 |③---|
④口口④ |④---|
58
口口口口 |①---|
口①①口 |----|
口①①口 |----|
口口口口 |----|

不確定度: 0

最終更新:2015年02月20日 16:39