prop the world
S-C-U

EXTREME

Level: 9
BPM: 130
Notes: 774

1
口口口口 |----|
口口口口 |----|
口口口口 |----|
口口口口 |----|
2
①①口口 |①-②-|
口①②③ |③-④-|
①①口口
口④口口

口口口口
⑤口⑥口
口口⑥口 |--⑤-|
口口⑥⑥ |⑥---|
3
口①①④ |①-②③|
口③⑤⑧ |④⑤⑥-|
②⑥口② |--⑦-|
口⑦⑦口 |⑧---|
4
口①①③ |①-②-|
④口口⑥ |③-④-|
②口口② |--⑤-|
口⑤⑤口 |⑥---|
5
口①①④ |①-②③|
口③⑤口 |④⑤⑥-|
②⑥口②
口口口口

口口口口
口⑨⑨⑧
口口口口 |--⑦-|
口⑦⑦口 |⑧-⑨-|
6
口①①③ |①-②-|
④口口⑥ |③-④-|
②口口② |--⑤-|
口⑤⑤口 |⑥---|
7
口①①④ |①-②③|
口③⑤⑧ |④⑤⑥-|
②⑥口② |--⑦-|
口⑦⑦口 |⑧---|
8
口①①③ |①-②-|
④口口⑥ |③-④-|
②口口② |--⑤-|
口⑤⑤口 |⑥---|
9
口口口③ |--①②|
口②④口 |③④⑤-|
①⑤口⑥ |----|
口口⑦⑦ |⑥-⑦-|
10
口②①① |①-②-|
③④③③ |③-④-|
⑤⑥⑤⑤ |⑤-⑥-|
口⑧⑦⑦ |⑦-⑧-|
11
口②①① |①-②-|
③④③③ |③-④-|
⑤⑥⑤⑤ |⑤-⑥-|
⑦⑧⑦⑦ |⑦-⑧-|
12
口②①① |①-②-|
③④③③ |③-④-|
⑤⑥⑤⑤ |⑤-⑥-|
口⑧⑦⑦ |⑦-⑧-|
13
口③①① |①-②-|
②④③③ |③-④-|
⑤⑦⑤⑤ |⑤-⑥-|
⑥⑧⑦⑦ |⑦-⑧-|
14
口③①① |①-②-|
②④③③ |③-④-|
⑤口⑤⑤ |⑤-⑥-|
⑥⑧⑦⑦ |⑦-⑧-|
15
口②①① |①-②-|
③④③③ |③-④-|
⑤⑥⑤⑤ |⑤-⑥-|
⑦⑧⑦⑦ |⑦-⑧-|
16
②口①① |①-②-|
④③③③ |③-④-|
⑥⑤⑤⑤ |⑤-⑥-|
⑧口⑦⑦ |⑦-⑧-|
17
①③口口 |①-②-|
口口口口 |③-④-|
口口口口
口②④口

口口⑤⑦
口口⑥⑧
⑨⑩⑪口 |⑤⑥⑦⑧|
⑫⑬⑭口 |⑨⑩⑪⑫⑬⑭|
18
⑥口口④ |①--②|
①③③口 |③-④-|
⑧⑤⑤① |⑤⑥--|
口⑦⑦② |⑦--⑧|
19
④①①口 |①-②-|
口⑦⑦② |③④--|
口③③⑧ |⑤--⑥|
⑥⑤⑤口 |⑦-⑧-|
20
⑥①①口 |①--②|
②⑦⑦口 |③-④-|
⑧⑤⑤口 |⑤⑥--|
口③③④ |⑦--⑧|
21
口①①口 |①-②-|
④⑦⑦⑤ |③④--|
口口口② |⑤--⑥|
⑥③③⑧ |⑦-⑧-|
22
口①①口 |①--②|
②口口口 |③-④-|
口口口④
口③③口

口⑦⑦⑥
口口口口
口⑤⑤口 |⑤⑥--|
⑧口口口 |⑦--⑧|
23
⑥⑤⑤口 |①-②-|
⑧①①④ |③④--|
口⑦⑦② |⑤--⑥|
口③③口 |⑦-⑧-|
24
④③③口 |①--②|
口①①口 |③-④-|
口口口②
口口口口

口口口口
⑥⑦⑦口
⑧口口口 |⑤⑥--|
口⑤⑤口 |⑦--⑧|
25
口①①口 |①-②-|
④口口口 |③④--|
口口口②
口③③口

⑥⑦⑦⑥
⑦⑤⑤⑦
⑥⑦⑦⑥ |⑤--⑥|
口口口口 |--⑦-|
26
口口口④ |①-②③|
口②③口 |④-⑤-|
口口口口
⑤①①⑤

⑥口⑩口
⑫⑨⑨口
⑪口⑧口 |⑥-⑦⑧|
口口⑦口 |⑨⑩⑪⑫|
27
⑤⑥⑦④ |-①②③|
口口口③ |④--⑤⑥⑦|
口②口②
口口口①

口口口口
口口⑬口
⑧⑪⑫⑫ |⑧-⑨-|
口⑩⑨⑨ |⑩⑪⑫⑬|
28
②①口① |①-②-|
口口口口 |③-④-|
口口口口
口④④③

⑨口口⑥
⑧口口口
口⑦⑦口 |⑤-⑥-|
⑤口口口 |⑦-⑧⑨|
29
口⑤⑤口 |①-②③|
口①①⑥ |④-⑤⑥|
④口口②
口③③口

口口口⑦
口⑨⑨口
口口口口 |⑦-⑧-|
⑧口口⑧ |--⑨-|
30
②③④口 |①-②③|
口口口口 |④-⑤-|
①口口①
口⑤⑤口

口⑫口口
口⑪⑩⑥
⑧口⑨⑨ |⑥-⑦⑧|
⑦口口口 |⑨⑩⑪⑫|
31
①口②② |-①②③|
口⑦⑥⑤ |④--⑤⑥⑦|
口④口口
口③口口

口口口口
⑧口口⑬
口⑪⑫⑫ |⑧-⑨-|
口⑩⑨⑨ |⑩⑪⑫⑬|
32
②口①① |①-②③|
口③③口 |④-⑤-|
④口口口
口⑤⑤口

口⑦⑦口
⑧⑩口⑨
口⑥⑥口 |--⑥-|
口口口口 |⑦⑧⑨⑩|
33
⑤⑫⑬② |--①-|
⑥⑪⑭④ |②-③④|
⑦⑩⑮③ |⑤⑥⑦⑧⑨⑩|
⑧⑨⑯① |⑪⑫⑬⑭⑮⑯|
34
②口口口 |①-②③|
③⑤口① |④-⑤-|
④⑤口①
口口口口

口口口⑥
⑫口⑩⑧
⑪口⑨⑦ |⑥-⑦⑧|
口口口口 |⑨⑩⑪⑫|
35
①②口口 |-①②③|
口⑤⑤④ |④-⑤-|
口口口③
口④④口

⑦⑨⑪⑦
⑧口口⑩
口⑥⑥口 |⑥-⑦-|
口口口口 |⑧⑨⑩⑪|
36
③口口② |--①-|
口口口口 |②-③-|
口口口口
①口口口

口口口⑥
口口口⑦
⑤口口口 |④-⑤-|
口⑤口④ |--⑥⑦|
37
③口⑥④ |--①-|
口口口⑥ |②-③-|
⑤口口口 |④-⑤-|
①⑤口② |--⑥-|
38
②口口口 |①-②③|
③①①口 |④-⑤-|
口④④口
⑤口口⑤

口⑫口⑩
⑪⑧⑨⑥
⑦口口口 |⑥-⑦⑧|
口口口口 |⑨⑩⑪⑫|
39
⑤口口口 |-①②③|
口口口口 |④-⑤-|
口①③口
口②④口

口口口口
口⑥⑥⑦
⑩⑧⑧口 |⑥-⑦-|
⑨口口口 |⑧-⑨⑩|
40
口①①口 |①-②-|
②⑤口口 |③-④⑤|
口④口口
口③③口

⑩⑪⑫⑨
口口⑦⑧
口口⑥口 |⑥⑦⑧⑨|
口口口口 |-⑩⑪⑫|
41
口口口口 |--①-|
口①口③ |②-③-|
口口口口
口口口②

④⑪⑫口
⑤⑩⑬口
⑥⑨⑭口 |④⑤⑥⑦⑧⑨|
⑦⑧⑮口 |⑩⑪⑫⑬⑭⑮|
42
②口口① |①-②-|
口口口③ |③-④-|
口口口①
④口口③

⑧⑧口口
口⑤⑦口
口⑤⑩⑥ |⑤-⑥⑦|
口口口⑨ |⑧⑨-⑩|
43
口口①① |①-②-|
②③③③ |③④⑤-|
④口口口
⑤口口口

口⑦口口
⑨口口口
口⑥⑥⑥ |⑥-⑦-|
口⑧⑧⑧ |⑧-⑨-|
44
②口①① |①-②-|
口③③③ |③-④-|
④口口口
口口口口

口⑨口口
口口口口
⑩⑦⑤⑤ |⑤-⑥⑦|
⑥⑤⑧⑧ |⑧⑨-⑩|
45
④口①① |①-②-|
②③③③ |③-④-|
口口口口
口口口口

口口口口
口⑧口口
口⑤⑤⑤ |⑤-⑥-|
⑥⑦⑦⑦ |⑦-⑧-|
46
口②①① |①-②-|
③口③③ |③-④-|
口口口口
④口口口

口口口口
口⑨口口
⑦⑤⑤⑤ |⑤-⑥⑦|
⑩⑥⑧⑧ |⑧⑨-⑩|
47
口口①① |①-②-|
②⑤③③ |③④⑤-|
口④口口
口③口口

⑨口口口
⑧口口口
⑦口⑥⑥ |⑥-⑦-|
⑥口⑧⑧ |⑧-⑨-|
48
口口①① |①-②-|
④③③③ |③-④-|
口口口口
②口口口

口⑨口口
口⑩口口
⑦⑤⑤⑤ |⑤-⑥⑦|
口⑥⑧⑧ |⑧⑨-⑩|
49
⑧⑧①① |①-②-|
③口③③ |③-④⑤|
口②④⑤ |--⑥-|
⑥⑥⑦⑦ |⑦-⑧-|
50
口口①① |①-②-|
②③③③ |③-④-|
④口口口
口口口口

口⑨口口
口口口口
⑩⑦⑤⑤ |⑤-⑥⑦|
⑥⑥⑧⑧ |⑧⑨-⑩|
51
口口①① |①-②-|
②③③③ |③④⑤-|
口④口口
口⑤口口

⑦口口口
⑨口口口
⑥口⑥⑥ |⑥-⑦-|
⑧口⑧⑧ |⑧-⑨-|
52
口口①① |①-②-|
口③③③ |③-④-|
②口口口
④口口口

口口口口
口⑨口口
⑦⑤⑤⑤ |⑤-⑥⑦|
⑩⑥⑧⑧ |⑧⑨-⑩|
53
口④①① |①-②-|
③⑧③③ |③-④-|
⑤②⑤⑤ |⑤-⑥-|
⑥⑦⑦⑦ |⑦-⑧-|
54
④口①① |①-②-|
③口③③ |③-④-|
②口口口
口口口口

口口口口
口⑩口口
⑦⑤⑤⑤ |⑤-⑥⑦|
⑨⑥⑧⑧ |⑧⑨-⑩|
55
口②①① |①-②-|
③口③③ |③④⑤-|
④口口口
⑤口口口

口口口口
⑨⑦口口
口⑥⑥⑥ |⑥-⑦-|
口⑧⑧⑧ |⑧-⑨-|
56
④口①① |①-②-|
口③③③ |③-④-|
②口口口
口口口口

口口口口
口⑩口口
⑦⑤⑤⑤ |⑤-⑥⑦|
⑨⑥⑧⑧ |⑧⑨-⑩|
57
口口①① |①-②-|
口口③③ |③-④-|
口②口口
口口④口

⑤⑫⑬口
⑥⑪⑭口
⑦⑩⑮口 |⑤⑥⑦⑧⑨⑩|
⑧⑨⑯口 |⑪⑫⑬⑭⑮⑯|
58
口口口口 |①---|
口口口① |----|
口口口口 |----|
口口口① |----|

不確定度: 0

最終更新:2015年02月16日 12:27