フレッフレー♪熱血チアガール
裏マドンナだ!Primちゃん

EXTREME

Level: 10
BPM: 195
Notes: 894

1
口口口口 |----|
口口口口 |----|
口口口口 |----|
口口口口 |----|
2
①口⑤口 |①-②③|
⑥④口⑦ |④⑤⑥⑦|
口口③口
口②口口

⑭口口⑬
口口⑮口
⑫⑧口⑨ |⑧⑨⑩⑪|
⑩口口⑪ |⑫⑬⑭⑮|
3
⑥③②口 |①---|
④⑥口⑤ |②-③-|
口③②⑤ |--④-|
④①①口 |⑤-⑥-|
4
口⑥⑥① |①-②-|
口口②口 |③-④-|
④③口口 |⑤---|
⑤④口口 |⑥---|
5
口口口口 |①---|
口①①口 |②-③-|
③口口②
③口口②

④口⑤口
④⑥口⑤
口口口口 |--④-|
口口口口 |⑤-⑥-|
6
口②口① |①-②-|
口口②口 |③-④-|
④③口② |⑤---|
⑤④口口 |----|
7
①口口① |①-②-|
③口②口 |③-④-|
⑤口④③ |⑤-⑥-|
⑦⑧口⑥ |⑦-⑧-|
8
①⑥⑦口 |①-②-|
③④⑤⑧ |③-④-|
⑤②③口 |⑤-⑥-|
⑦口①口 |⑦-⑧-|
9
①口口① |①-②-|
③口④口 |③-④-|
⑤③②口 |⑤-⑥-|
⑦⑦⑥口 |⑦---|
10
①口口口 |①---|
②口口⑥ |②---|
③口⑤口 |③-④-|
⑤口④口 |⑤-⑥-|
11
①口⑥① |①-②-|
③口②口 |③-④-|
⑤口口③ |⑤-⑥-|
⑦口口④ |⑦---|
12
①⑦⑧口 |①-②-|
③⑤⑥口 |③-④-|
⑤③④口 |⑤-⑥-|
⑦①②口 |⑦-⑧-|
13
①⑦口① |①-②-|
③口口② |③-④-|
⑤口④③ |⑤-⑥-|
⑦口⑥口 |⑦---|
14
⑯⑮⑭⑬ |①②③④|
④③②① |⑤⑥⑦⑧|
⑧⑦⑥⑤ |⑨⑩⑪⑫|
⑫⑪⑩⑨ |⑬⑭⑮⑯|
15
口口口口 |----|
②口①口 |①-②-|
口⑤③口 |③---|
口④口口 |④-⑤-|
16
①口口④ |--①-|
②口①③ |--②-|
口口②③ |--③-|
口口口④ |--④-|
17
②①③口 |--①-|
③⑤口④ |②-③-|
口④口⑤ |--④-|
②①口口 |--⑤-|
18
口③口⑤ |--①-|
②口④口 |--②-|
②口④口 |③---|
口③①⑤ |④-⑤-|
19
口口口口 |----|
口①口② |①-②-|
口③⑤口 |③---|
口口④口 |④-⑤-|
20
④口口① |--①-|
③①口② |--②-|
③②口口 |--③-|
④口口口 |--④-|
21
口③①② |--①-|
④口口③ |②-③-|
⑤⑤④口 |--④-|
口口①② |--⑤-|
22
④③②口 |--①-|
口④③② |--②-|
⑤口④③ |③-④-|
①⑤口④ |--⑤-|
23
口口②① |----|
口口③② |①-②-|
口口口口 |③---|
④口口口 |④---|
24
⑥⑤④口 |①-②-|
⑦③口④ |③-④-|
口①②⑤ |--⑤-|
口口⑦⑥ |⑥-⑦-|
25
④⑤口口 |----|
⑤④③口 |①-②-|
口②①口 |③-④-|
口口口口 |--⑤-|
26
口口②① |--①-|
口④③口 |--②-|
口口⑤口 |--③-|
口口②① |④-⑤-|
27
⑤口口口 |①---|
口口口④ |②-③-|
口口口③ |④---|
①口口② |⑤---|
28
口口①口 |①-②-|
口①口口 |③-④-|
①⑥②③ |⑤---|
⑤口③④ |⑥---|
29
口口口② |①---|
①口口口 |②---|
口口口口
口口②口

③口口口
⑤口口④
⑤口口④ |③---|
口③口口 |④-⑤-|
30
⑥②①⑦ |--①-|
口⑥⑦口 |②-③-|
口⑦⑥⑤ |④-⑤-|
⑦④③⑥ |⑥-⑦-|
31
口口口④ |①---|
口口口① |--②-|
①口口口 |③---|
④③②口 |④---|
32
口口口口 |①---|
①⑤⑥口 |--②-|
②③④① |③-④-|
口口口口 |⑤-⑥-|
33
口①①口 |①---|
口口⑥口 |--②-|
口⑤④口 |③-④-|
口②③口 |⑤-⑥-|
34
⑥①⑥口 |①---|
⑥②⑥口 |②-③-|
②⑥口⑤ |--④-|
①③③④ |⑤-⑥-|
35
口③口① |----|
口⑤⑤② |①-②-|
口④④口 |③---|
③口①口 |④-⑤-|
36
③口②① |--①-|
④口口⑤ |--②-|
口口⑤口 |--③-|
③口②① |④-⑤-|
37
③④口口 |--①-|
口②①口 |--②-|
②①口口 |--③-|
口③④口 |--④-|
38
口口⑤口 |--①-|
②⑥①⑤ |②-③-|
⑦④⑥③ |④-⑤-|
口⑦口口 |⑥-⑦-|
39
口①口③ |----|
②⑤⑤口 |①-②-|
口④④口 |③---|
①口③口 |④-⑤-|
40
①②口口 |--①-|
口⑤口③ |--②-|
口⑤④③ |--③-|
①②④口 |④-⑤-|
41
①口②② |--①-|
口④口口 |--②-|
④口口口 |--③-|
①口③③ |--④-|
42
口④⑤口 |--①-|
④口①⑤ |②-③-|
⑥②③⑦ |④-⑤-|
口⑥⑦口 |⑥-⑦-|
43
①口③口 |----|
②⑤⑤口 |①-②-|
口④④口 |③---|
①口口③ |④-⑤-|
44
①②口③ |--①-|
⑤口口④ |--②-|
口⑤口口 |--③-|
①②口③ |④-⑤-|
45
口口④③ |--①-|
口①②口 |--②-|
口口①② |--③-|
口④③口 |--④-|
46
口⑥口④ |--①-|
⑦①⑤② |②-③-|
③⑦口⑤ |④-⑤-|
⑥口④口 |⑥-⑦-|
47
③口①口 |----|
口⑤⑤② |①-②-|
口④④口 |③---|
口③口① |④-⑤-|
48
口口②① |--①-|
③口⑤口 |--②-|
③④⑤口 |--③-|
口④②① |④-⑤-|
49
②②口① |--①-|
口口④口 |--②-|
口口口④ |--③-|
③③口① |--④-|
50
口口①口 |--①-|
②③口④ |②-③-|
⑤口口⑥ |④-⑤-|
⑦口口① |⑥-⑦-|
51
口口①③ |①---|
⑦⑤④⑥ |②-③-|
⑨②②⑧ |--④⑤|
口口③① |⑥⑦⑧⑨|
52
口口①③ |①---|
口口口口 |②-③-|
口②②口
口口③①

口④口口
⑧⑥⑤⑦
⑩口口⑨ |④⑤⑥⑦|
口口口⑪ |⑧⑨⑩⑪|
53
①③口口 |①---|
口口口口 |②-③-|
口②②口
③①口口

⑪口口⑩
⑦⑤④⑥
⑨口口⑧ |④⑤⑥⑦|
口口口口 |⑧⑨⑩⑪|
54
口⑩⑨口 |①②③④|
口⑧⑦口 |⑤⑥⑦⑧|
口④③口 |⑨---|
⑥②①⑤ |⑩---|
55
①口口① |①-②-|
②口口③ |③-④-|
③④口⑤ |⑤-⑥-|
⑥口⑧⑦ |⑦-⑧-|
56
口⑦⑥① |①-②-|
⑧⑤④③ |③-④-|
口③②⑤ |⑤-⑥-|
口①口⑦ |⑦-⑧-|
57
①口⑦① |①-②-|
口④口③ |③-④-|
口②③⑤ |⑤-⑥-|
口⑥口⑦ |⑦---|
58
①②⑦① |①-②-|
③④⑤③ |③-④-|
⑤⑥口口 |⑤-⑥-|
⑦⑧口口 |⑦-⑧-|
59
口口口④ |①---|
口口口③ |②---|
口口口② |③---|
口口③① |④---|
60
⑥②①口 |①-②-|
⑦④③口 |③-④-|
⑧口口口 |⑤-⑥-|
⑤①口口 |⑦-⑧-|
61
口口口④ |①---|
口口口③ |②---|
口⑤②口 |③-④-|
口口③① |--⑤-|
62
口口③口 |①-②-|
口④②⑦ |③---|
⑥口⑤口 |④-⑤-|
④①口口 |⑥-⑦-|
63
①④口口 |①-②-|
口⑥⑦口 |③---|
口④⑤③ |④-⑤-|
口口口② |⑥-⑦-|
64
口口①④ |①-②-|
口⑦⑥口 |③---|
③⑤④口 |④-⑤-|
②口口口 |⑥-⑦-|
65
①④口口 |①-②-|
④口口② |③---|
口⑥⑤③ |④-⑤-|
口口⑦口 |⑥-⑦-|
66
口口①⑤ |①-②-|
口口②口 |③-④-|
③口口口 |⑤---|
④①口口 |----|
67
①③③口 |①---|
③②②③ |----|
④②②④ |②-③-|
口④④① |④---|
68
口口口口 |----|
口②①口 |----|
口口③口 |--①-|
口口口口 |②-③-|
69
口口口口 |①---|
③口口② |②-③-|
口①口口
口③②口

⑤口口④
口口口口
⑤⑥⑥④ |--④-|
口口口口 |⑤-⑥-|
70
口①③口 |----|
⑤②④口 |①-②-|
口口⑥口 |③-④-|
①③口口 |⑤-⑥-|
71
④⑥⑧② |①-②-|
口⑦口③ |③-④-|
①⑤口口 |⑤-⑥-|
④⑧⑥② |⑦-⑧-|
72
口口口③ |①-②-|
④口①② |③-④-|
②口口④
口口口口

口口口口
口⑧⑧口
口⑥⑦口 |⑤-⑥-|
口口口⑤ |⑦-⑧-|
73
②口⑤① |--①-|
口⑥口⑤ |②-③-|
⑦口⑥口 |④-⑤-|
④⑦口③ |⑥-⑦-|
74
口口③① |----|
口④②⑤ |①-②-|
口⑥口口 |③-④-|
口口③① |⑤-⑥-|
75
②⑧⑦④ |①-②-|
口⑥⑤口 |③-④-|
③口①口 |⑤-⑥-|
②口⑧④ |⑦-⑧-|
76
⑧口口⑤ |①-②-|
②⑥⑦④ |③-④-|
④口①② |⑤-⑥-|
口口口③ |⑦-⑧-|
77
口⑤①口 |--①-|
⑤口⑥② |②-③-|
口⑥③⑦ |④-⑤-|
口口⑦④ |⑥-⑦-|
78
①③口口 |----|
口口⑥⑤ |①-②-|
②④⑤⑥ |③-④-|
①③口口 |⑤-⑥-|
79
⑤④②③ |①-②-|
①口⑧口 |③-④-|
口口⑦口 |⑤-⑥-|
④口⑥② |⑦-⑧-|
80
口③②口 |①-②-|
口①口④ |③-④-|
④口口口
口②口口

口口口⑤
⑥⑧⑧口
口口口⑥ |⑤-⑥-|
口口口⑦ |⑦-⑧-|
81
①⑦②口 |--①-|
⑤口⑦⑥ |②-③-|
③⑤⑥④ |④-⑤-|
口口④口 |⑥-⑦-|
82
口口③① |----|
⑤⑥口口 |①-②-|
⑥⑤④② |③-④-|
口口③① |⑤-⑥-|
83
③②④⑤ |①-②-|
口口⑧① |③-④-|
口口⑦口 |⑤-⑥-|
②⑥口④ |⑦-⑧-|
84
③⑧口⑧ |①-②-|
⑤②⑧② |③-④-|
⑦④口⑥ |⑤-⑥-|
①⑥口④ |⑦-⑧-|
85
口口口口 |--①-|
③⑦⑦④ |②-③-|
⑤口口⑥ |④-⑤-|
①口口② |⑥-⑦-|
86
⑥③②口 |①---|
④⑥口⑤ |②-③-|
口③②⑤ |--④-|
④①①口 |⑤-⑥-|
87
口⑥⑥① |①-②-|
口口②口 |③-④-|
④③口口 |⑤---|
⑤④口口 |⑥---|
88
口口口口 |①---|
口①①口 |②-③-|
③口口②
③口口②

④口⑤口
④⑥口⑤
口口口口 |--④-|
口口口口 |⑤-⑥-|
89
⑥②⑥① |①-②-|
口⑦②⑦ |③-④-|
④③口② |⑤---|
⑤④口口 |⑥-⑦-|
90
口口口口 |①---|
口口口口 |----|
口口①口 |----|
口口口口 |----|
91
④⑯⑪⑨ |①②③④|
⑫⑧③① |⑤⑥⑦⑧|
②⑭⑦⑤ |⑨⑩⑪⑫|
⑩⑥⑮⑬ |⑬⑭⑮⑯|
92
口口口口 |①---|
口口①① |----|
口口②② |②---|
口口口口 |----|
93
口①③口 |①---|
口②④口 |----|
①③口口 |②---③-|
②④口口 |--④---|
94
口③⑤① |①---②-|
口④⑥② |--③---|
③⑤①口 |④---⑤-|
④⑥②口 |----⑥-|
95
口口口① |--①-|
口口口口 |----|
②口①口 |----|
②②口口 |-②--|
96
口①①① |----|
口①①① |①---|
口①①① |----|
口口口口 |----|

不確定度: 0

最終更新:2015年05月07日 02:37