time granular
ZUKI

BASIC

Level: 4
BPM: 176
Notes: 301

1
口口口口 |----|
口口口口 |----|
口口口口 |----|
口口口口 |----|
2
①②口口 |①---|
口口口口 |②---|
口口③③ |③---|
口口口口 |----|
3
口口口口 |①---|
④口口口 |②---|
③口口口 |③---|
②口①① |④---|
4
口口②① |①---|
口口口口 |②---|
③③口口 |③---|
口口口口 |----|
5
口口口口 |①---|
口口口④ |②---|
口口口③ |③---|
①①口② |④---|
6
①②口口 |①---|
口口口口 |②---|
口口③③ |③---|
口口口口 |----|
7
口口口口 |①---|
④口口口 |②---|
③口口口 |③---|
②口①① |④---|
8
口③③口 |①---|
口②①口 |--②-|
口②①口 |----|
口口口口 |③---|
9
口口口口 |--①-|
口口口口 |----|
口口口口 |----|
①口口① |----|
10
①①口口 |①---|
②②口口 |--②-|
③③口口 |----|
口口口口 |③---|
11
口口口口 |①---|
口口口口 |②---|
口口口口 |③---|
④③②① |④---|
12
口口①① |①---|
口口②② |--②-|
口口③③ |----|
口口口口 |③---|
13
口口口口 |①---|
口口口口 |②---|
口口口口 |③---|
①②③④ |④---|
14
口②②口 |①---|
口口口口 |--②-|
口①①口 |----|
③口口③ |③---|
15
③口口③ |--①-|
①口口① |----|
口②②口 |②---|
口口口口 |③---|
16
口口口口 |①---|
口①②口 |--②-|
口③口口 |----|
口口口口 |③---|
17
口口口口 |----|
口口口口 |----|
口口口口 |----|
口口口口 |----|
18
①①口口 |①---|
②②口口 |--②-|
③③口口 |----|
口口口口 |③---|
19
口口口口 |①---|
口口口口 |②---|
口口口口 |③---|
④③②① |④---|
20
口口①① |①---|
口口②② |--②-|
口口③③ |----|
口口口口 |③---|
21
口口口口 |①---|
口口口口 |②---|
口口口口 |③---|
①②③④ |④---|
22
①口口① |①---|
②口口② |--②-|
③口口③ |----|
口口口口 |③---|
23
口口口口 |--①-|
③口口③ |----|
口口口口 |②---|
①②②① |③---|
24
口①①口 |①---|
口②②口 |--②-|
口③③口 |----|
口口口口 |③---|
25
口口口口 |----|
口口口口 |①---|
口口口口 |②---|
①口口② |----|
26
口①口口 |①---|
口②口口 |----|
口口口口 |②---|
口口口口 |----|
27
口口口口 |①---|
口口口口 |----|
口①口口 |----|
口口口口 |----|
28
口口①口 |①---|
口口②口 |----|
口口口口 |②---|
口口口口 |----|
29
口口口口 |①---|
口口口口 |----|
口口①口 |----|
口口口口 |----|
30
口口口口 |①---|
口口口口 |②---|
③④口口 |③---|
①口口② |④---|
31
口③③口 |①---|
口②口口 |②---|
口口①口 |③---|
口口口口 |----|
32
口口口口 |①---|
①口口① |--②-|
②口口② |----|
③口口③ |③---|
33
口②①口 |----|
口口口口 |----|
口口口口 |----|
口口口口 |①-②-|
34
口口口口 |----|
口口口口 |----|
②口口口 |①---|
口①口口 |②---|
35
口②③口 |①---|
①口口④ |②---|
口口口口 |③---|
口口口口 |④---|
36
口口口口 |①---|
口③④口 |②---|
口①②口 |③---|
口口口口 |④---|
37
口③②口 |①---|
④口口① |②---|
口口口口 |③---|
口口口口 |④---|
38
口口口口 |①---|
口④③口 |②---|
口②①口 |③---|
口口口口 |④---|
39
③口口② |①---|
口口口口 |②---|
④口口① |③---|
口口口口 |④---|
40
口③②口 |①---|
口口口口 |②---|
口④①口 |③---|
口口口口 |④---|
41
①口口① |①---|
②口口② |②---|
③口口③ |③---|
④口口④ |④---|
42
口①①口 |①---|
口②②口 |②---|
口③③口 |③---|
口④④口 |④---|
43
口②③口 |①---|
①口口④ |②---|
口口口口 |③---|
口口口口 |④---|
44
口口口口 |①---|
口③④口 |②---|
口①②口 |③---|
口口口口 |④---|
45
口③②口 |①---|
④口口① |②---|
口口口口 |③---|
口口口口 |④---|
46
口口口口 |①---|
口④③口 |②---|
口②①口 |③---|
口口口口 |④---|
47
口口①① |①---|
口口②② |----|
口口口口 |②---|
口口口口 |----|
48
口口口口 |①---|
口口口口 |----|
口口①① |②---|
口口②② |----|
49
口口④口 |①---|
口③口口 |②---|
口口②口 |③---|
口①口口 |④---|
50
①口口口 |①---|
口口口② |②---|
③口口口 |③---|
口口口④ |④---|
51
①②口口 |①---|
口口口口 |②---|
口口③③ |③---|
口口口口 |----|
52
口口口口 |①---|
④口口口 |②---|
③口口口 |③---|
②口①① |④---|
53
口口②① |①---|
口口口口 |②---|
③③口口 |③---|
口口口口 |----|
54
口口口口 |①---|
口口口④ |②---|
口口口③ |③---|
①①口② |④---|
55
①②口口 |①---|
口口口口 |②---|
口口③③ |③---|
口口口口 |----|
56
口口口口 |①---|
④口口口 |②---|
③口口口 |③---|
②口①① |④---|
57
口②①口 |①---|
口④③口 |②---|
口口口口 |③---|
口口口口 |④---|
58
口口口口 |①---|
口口口口 |②---|
口②①口 |----|
口口口口 |----|
59
①口口口 |①---|
口②口口 |--②-|
口口③口 |----|
口口口口 |③---|
60
口口口口 |----|
口口口口 |----|
口口口口 |----|
口口口口 |----|
61
口口口口 |①---|
口口①口 |--②-|
口②口口 |----|
③口口口 |③---|
62
口口口口 |----|
口口口口 |----|
口口口口 |----|
口口口口 |----|
63
口口口口 |①---|
口口口口 |----|
口口口口 |②---|
②口口① |----|
64
口口口口 |①---|
口口口口 |----|
口②①口 |②---|
口口口口 |----|
65
②口口① |①---|
口④③口 |②---|
口口口口 |③---|
口口口口 |④---|
66
口口口口 |①---|
口口口口 |②---|
②口口① |③---|
④口口③ |④---|
67
口口口口 |①---|
口①①口 |----|
口①①口 |----|
②②②② |--②-|
68
口口口口 |----|
①口口① |----|
①口口① |----|
口口口口 |--①-|
69
①①①① |----|
口口口口 |----|
口口口口 |----|
口口口口 |--①-|
70
口口口口 |----|
口口口口 |----|
口口口口 |----|
口口口口 |----|
71
口②口① |①---|
口④③口 |②---|
口口口口 |③---|
口口口口 |④---|
72
口口口口 |①---|
口口口口 |②---|
口②①口 |③---|
④口③口 |④---|
73
口口④口 |①---|
口③口口 |②---|
口口②口 |③---|
口①口口 |④---|
74
①口口口 |①---|
口口口口 |----|
口口口口 |----|
口口口口 |----|
75
口④口口 |①---|
口口③口 |②---|
口②口口 |③---|
口口①口 |④---|
76
口口口① |①---|
口口口口 |----|
口口口口 |----|
口口口口 |----|
77
口③③口 |----|
口口口口 |①---|
①口口② |--②-|
①口口② |--③-|
78
口口口口 |--①-|
口②口口 |----|
口口③口 |②---|
口①①口 |③---|

不確定度: 0

最終更新:2015年01月15日 14:43