time granular
ZUKI

ADVANCED

Level: 7
BPM: 176
Notes: 516

1
口口口口 |----|
口口口口 |----|
口口口口 |----|
口口口口 |----|
2
口③口口 |①---|
①口④② |②---|
口⑤口口 |③-④-|
①口⑥② |⑤-⑥-|
3
⑤④口口 |--①-|
③⑥口口 |②-③-|
⑦口口口 |④-⑤-|
①②口口 |⑥-⑦-|
4
口口③口 |①---|
②④口① |②---|
口口⑤口 |③-④-|
②⑥口① |⑤-⑥-|
5
口口④① |--①-|
口口②⑤ |②-③-|
口口⑥③ |④-⑤-|
口口口⑦ |⑥-⑦-|
6
①③口② |①---|
口口④口 |②---|
①⑤口② |③-④-|
口口⑥口 |⑤-⑥-|
7
①④口口 |--①-|
⑤②口口 |②-③-|
③⑥口口 |④-⑤-|
⑦口口口 |⑥-⑦-|
8
④⑦⑦① |①-②-|
口②③口 |③-④-|
④⑥⑤① |⑤-⑥-|
口口口口 |⑦---|
9
口口口口 |--①-|
③口口口 |----|
口口口口 |----|
①口②① |②-③-|
10
口②①① |①---|
口④③③ |②-③-|
口口⑤⑤ |--④-|
口⑥口口 |⑤-⑥-|
11
口口②① |①-②-|
口口⑥⑤ |③-④-|
③④口口 |⑤-⑥-|
⑦⑧口口 |⑦-⑧-|
12
①①②口 |①---|
③③④口 |②-③-|
⑤⑤口口 |--④-|
口口⑥口 |⑤-⑥-|
13
①②口口 |①-②-|
⑤⑥口口 |③-④-|
口口④③ |⑤-⑥-|
口口⑧⑦ |⑦-⑧-|
14
口口②② |①---|
口口口口 |--②-|
①①口口 |----|
口口③③ |③---|
15
③口口③ |--①-|
①①口口 |----|
口②②口 |②---|
口口口口 |③---|
16
口③口口 |①---|
口口②口 |--②-|
口口口口 |----|
①口口口 |③---|
17
②口口① |①-②-|
⑧⑥⑤口 |③-④-|
④口口③ |⑤-⑥-|
口口⑦口 |⑦-⑧-|
18
口②①① |①---|
口④③③ |②-③-|
口口⑤⑤ |--④-|
口⑥口口 |⑤-⑥-|
19
口口②① |①-②-|
口口⑥⑤ |③-④-|
③④口口 |⑤-⑥-|
⑦⑧口口 |⑦-⑧-|
20
①①②口 |①---|
③③④口 |②-③-|
⑤⑤口口 |--④-|
口口⑥口 |⑤-⑥-|
21
①②口口 |①-②-|
⑤⑥口口 |③-④-|
口口④③ |⑤-⑥-|
口口⑧⑦ |⑦-⑧-|
22
①口口① |①---|
口口口口 |--②-|
口②②口 |----|
③口口③ |③---|
23
②口口③ |--①-|
②口口③ |----|
口口口口 |②---|
口①①口 |③---|
24
口①①口 |①---|
口②②口 |--②-|
口③③口 |----|
口口口口 |③---|
25
③口口口 |--①-|
口口口口 |②-③-|
口口口② |--④-|
①⑥⑤④ |⑤-⑥-|
26
口口口① |①---|
③口口口 |--②-|
口④②口 |--③-|
⑤口口口 |④-⑤-|
27
口口口口 |----|
口③口口 |----|
口口②口 |--①-|
口口口① |②-③-|
28
①口口口 |①-②-|
口口口② |--③-|
口⑤④口 |--④-|
③口口口 |⑤---|
29
口口口① |----|
口口口口 |----|
口口口口 |----|
口口口口 |①---|
30
⑤口口口 |①-②-|
③④口口 |③-④-|
①②⑦⑥ |⑤---|
口口口口 |⑥-⑦-|
31
口口口③ |①-②-|
口口②① |③---|
口口口口
口口口口

口口口口
⑥口口⑥
口⑤⑤口 |④--⑤|
口④④口 |--⑥-|
32
口①①口 |①--②|
口③③口 |--③-|
②⑤⑤② |-④--|
④口口④ |⑤---|
33
①口口口 |--①-|
③⑦⑦② |②-③-|
⑤⑦⑦④ |④-⑤-|
口⑥⑥口 |⑥-⑦-|
34
口②③口 |----|
口口口口 |----|
口②③口 |①---|
①口口① |②-③-|
35
①口口③ |--①-|
口②④口 |②---|
口口口口 |③-④-|
口⑤⑤口 |--⑤-|
36
口①②口 |--①-|
⑤⑦④口 |②-③-|
口③口⑥ |④-⑤-|
口⑦口口 |⑥-⑦-|
37
口口口口 |--①-|
③口口① |②---|
口④②口 |③-④-|
⑤口口⑤ |--⑤-|
38
口口④口 |--①-|
口③口口 |②-③-|
⑤口②⑤ |④---|
口①口口 |⑤---|
39
②②③③ |①---|
口口口口 |②---|
口口口口 |③---|
①①④④ |④---|
40
②②口③ |①---|
口口口③ |②---|
①口口口 |③---|
①口④④ |④---|
41
口口⑧⑦ |①-②-|
⑤⑥口口 |③-④-|
口口④③ |⑤-⑥-|
①②口口 |⑦-⑧-|
42
口①⑥口 |①-②-|
⑤口②⑤ |③-④-|
⑤③⑥⑤ |--⑤-|
口口④口 |--⑥-|
43
①口口③ |--①-|
口②④口 |②---|
口口口口 |③-④-|
口⑤⑤口 |--⑤-|
44
口①②口 |--①-|
⑤⑦④口 |②-③-|
口③口⑥ |④-⑤-|
口⑦口口 |⑥-⑦-|
45
口口口口 |--①-|
③口口① |②---|
口④②口 |③-④-|
⑤口口⑤ |--⑤-|
46
⑤口④⑤ |--①-|
口③口口 |②-③-|
口口②口 |④---|
口①口口 |⑤---|
47
⑤口口⑤ |①-②-|
口④④口 |--③-|
③口口③ |--④-|
口①②口 |--⑤-|
48
口口口口 |①---|
口口口口 |②---|
口②①口 |③---|
口④③口 |④---|
49
口口口⑤ |①-②-|
口口口④ |--③-|
口口口③ |--④-|
①口口② |--⑤-|
50
口口口口 |--①-|
口③④口 |②-③-|
口⑤②口 |--④-|
口①⑥口 |⑤-⑥-|
51
口③口口 |①---|
①口④② |②---|
口⑤口口 |③-④-|
①口⑥② |⑤-⑥-|
52
⑤④口口 |--①-|
③⑥口口 |②-③-|
⑦口口口 |④-⑤-|
①②口口 |⑥-⑦-|
53
口口③口 |①---|
②④口① |②---|
口口⑤口 |③-④-|
②⑥口① |⑤-⑥-|
54
口口⑤① |①-②-|
口口④⑥ |③-④-|
口口⑦② |⑤-⑥-|
口口③⑧ |⑦-⑧-|
55
①③口② |①---|
口口④口 |②---|
①⑤口② |③-④-|
口口⑥口 |⑤-⑥-|
56
①④口口 |--①-|
⑤②口口 |②-③-|
③⑥口口 |④-⑤-|
⑦口口口 |⑥-⑦-|
57
④⑧⑦① |①-②-|
口②③口 |③-④-|
④⑥⑤① |⑤-⑥-|
口口口口 |⑦-⑧-|
58
口口口口 |--①-|
口口④口 |②---|
口③口口 |----|
②②①① |③-④-|
59
①②③口 |①-②-|
口口口口 |③-④-|
④口⑤口 |--⑤-|
口⑥口口 |⑥---|
60
口口口口 |----|
口②口口 |----|
口口①口 |----|
口口口口 |①-②-|
61
口②口① |①---|
口口③口 |②-③-|
口④口口 |--④-|
口口⑤口 |⑤---|
62
口口口口 |----|
口口口口 |----|
口口口口 |----|
①口口口 |--①-|
63
口口口口 |①---|
口口口口 |----|
口口口口 |----|
口口口① |----|
64
③口口③ |①---|
口②②口 |--②-|
口①①口 |--③-|
口口口口 |----|
65
口②①口 |①--②|
②④③① |--③-|
④⑥⑤③ |④--⑤|
⑥口口⑤ |--⑥-|
66
口口口口 |①---|
口口口口 |----|
口口口口 |----|
口①①口 |----|
67
口口口口 |①---|
②①①③ |----|
②①①③ |--②-|
口④④口 |③-④-|
68
口③②① |--①-|
口⑥口口 |-②--|
口口⑤口 |③-④-|
口口口④ |⑤-⑥-|
69
②②口口 |----|
①口口① |①---|
①口口① |--②-|
④④③③ |③-④-|
70
⑤口口⑤ |--①-|
口②①口 |②-③-|
口④③口 |④---|
口口口口 |⑤---|
71
⑤口口⑤ |①-②-|
口④④口 |--③-|
③口口③ |--④-|
口①②口 |--⑤-|
72
口口口口 |①---|
口口口口 |②---|
口②①口 |③---|
口④③口 |④---|
73
口口口⑤ |①-②-|
口口口④ |--③-|
口口口③ |--④-|
①口口② |--⑤-|
74
口①口口 |--①-|
口③②口 |②-③-|
口⑤④口 |④-⑤-|
口⑦⑥口 |⑥-⑦-|
75
⑤口口口 |①-②-|
④口口口 |--③-|
③口口口 |--④-|
②口口① |--⑤-|
76
口口①口 |--①-|
口②③口 |②-③-|
口④⑤口 |④-⑤-|
口⑥⑦口 |⑥-⑦-|
77
③④④② |①---|
③口口② |②---|
口口口口 |--③-|
①口口口 |--④-|
78
口口口口 |--①-|
口口②口 |----|
口③口口 |②---|
口①①口 |③---|

不確定度: 0

最終更新:2015年01月15日 14:43