time granular
ZUKI

EXTREME

Level: 9
BPM: 176
Notes: 719

1
口口口口 |----|
口口口口 |----|
口口口口 |----|
口口口口 |----|
2
口口口口 |①-②-|
③⑦⑤① |③-④-|
口⑥⑧口 |⑤-⑥-|
④口口② |⑦-⑧-|
3
③⑥⑤④ |--①-|
口口口② |②-③-|
①⑦⑧⑨ |④⑤⑥-|
口口口口 |⑦⑧⑨-|
4
口口口口 |①-②-|
①⑤⑦③ |③-④-|
口⑧⑥口 |⑤-⑥-|
②口口④ |⑦-⑧-|
5
口口⑤① |--①-|
⑪⑥口⑨ |②③④-|
口⑧⑦口 |⑤⑥⑦⑧|
②③④⑩ |⑨-⑩⑪|
6
③口口① |①-②-|
口⑦⑤口 |③-④-|
④口口② |⑤-⑥-|
口⑥⑧口 |⑦-⑧-|
7
口③口① |①-②-|
⑤口口④ |③-④⑤|
口⑧⑦⑥ |⑥⑦⑧-|
②⑨⑩⑪ |⑨⑩⑪-|
8
①口⑥④ |①-②-|
口⑦②口 |③-④-|
①⑤口④ |⑤-⑥-|
③⑦口口 |⑦---|
9
口口口口 |--①-|
③口①口 |----|
口口口口 |----|
口②①口 |②-③-|
10
口①②① |①---|
口③④③ |②-③-|
口⑤口⑤ |--④-|
口口⑥口 |⑤-⑥-|
11
口①口③ |①-②-|
口⑤口口 |③-④-|
口⑦⑥口 |⑤-⑥-|
②口⑧④ |⑦-⑧-|
12
①②①口 |①---|
③④③口 |②-③-|
⑤口⑤口 |--④-|
⑥口口口 |⑤-⑥-|
13
①⑤口③ |①-②-|
⑦口⑥口 |③-④-|
口⑧口口 |⑤-⑥-|
口②⑨④ |⑦⑧⑨-|
14
口口③口 |①---|
口④口① |②-③-|
③口②口 |④---|
⑤①口⑤ |⑤---|
15
口④⑤⑤ |①-②-|
②口③⑤ |③---|
口①口④ |④---|
口口②口 |⑤---|
16
口口口口 |①---|
口口②口 |--②-|
口③③口 |----|
①口口口 |③---|
17
④③②① |①②③④|
⑧⑦⑥⑤ |⑤⑥⑦⑧|
⑫⑪⑩⑨ |⑨⑩⑪⑫|
⑯⑮⑭⑬ |⑬⑭⑮⑯|
18
口①②① |①---|
口③④③ |②-③-|
口⑤口⑤ |--④-|
口口⑥口 |⑤-⑥-|
19
口①口③ |①-②-|
口⑤口口 |③-④-|
口⑦⑥口 |⑤-⑥-|
②口⑧④ |⑦-⑧-|
20
①②①口 |①---|
③④③口 |②-③-|
⑤口⑤口 |--④-|
口⑥口口 |⑤-⑥-|
21
①口③口 |①-②-|
⑧⑦⑥⑤ |③-④-|
⑫⑪⑩⑨ |⑤⑥⑦⑧|
②口口④ |⑨⑩⑪⑫|
22
口①②① |①---|
口口口⑤ |②-③-|
⑤口口口 |④---|
③④③口 |⑤---|
23
口⑤④口 |①-②-|
②①口口 |③---|
口口③② |④---|
口④⑤口 |⑤---|
24
①口④③ |①---|
口③①② |②-③-|
口①③口 |④---|
⑤口口⑤ |⑤---|
25
口口④口 |--①-|
⑥⑤③③ |②-③-|
②②⑤④ |--④-|
⑥①①口 |⑤-⑥-|
26
⑤口⑤口 |①---|
口口②④ |--②-|
口③口⑥ |③-④-|
口口①① |⑤-⑥-|
27
口⑥口⑥ |①---|
口③口⑦ |②-③-|
②⑤④口 |④-⑤-|
①①口口 |⑥-⑦-|
28
⑥口⑥口 |①-②-|
②口③口 |--③-|
口④⑤口 |④-⑤-|
口口①① |⑥---|
29
口④口④ |①---|
口②口口 |--②-|
口口③口 |③---|
①①口口 |④---|
30
口⑦⑥口 |①-②-|
⑤口口口 |③-④-|
③口口④ |⑤---|
①口口② |⑥-⑦-|
31
口口口口 |①-②-|
⑥②①⑥ |③---|
⑤口③⑤ |④--⑤|
④口口④ |--⑥-|
32
③①①③ |①--②|
⑤口口⑤ |--③-|
口④④口 |-④--|
口②②口 |⑤---|
33
⑫⑩①⑪ |--①-|
⑫口口⑪ |②③④⑤|
⑥⑦⑧⑨ |⑥⑦⑧⑨|
②③④⑤ |⑩-⑪⑫|
34
③口②口 |----|
口口①口 |----|
口③口② |①---|
口口口口 |②-③-|
35
口③口③ |--①-|
口①⑤② |②---|
④⑤④口 |③-④-|
①口②口 |--⑤-|
36
③⑦④口 |--①-|
口⑤口口 |②-③-|
⑦口⑥② |④-⑤-|
①口口口 |⑥-⑦-|
37
③口③口 |--①-|
②⑤①口 |②---|
口④⑤④ |③-④-|
口②口① |--⑤-|
38
口③口③ |--①-|
口口④口 |②-③-|
②⑤口口 |④---|
口口口① |⑤---|
39
②③②③ |①---|
口口口口 |②---|
口口口口 |③---|
①④①④ |④---|
40
②口②③ |①---|
①口口口 |②---|
口口⑤③ |③---|
①④口④ |④--⑤|
41
口⑤口口 |①②③④|
①②③④ |--⑤-|
⑤口口⑤
口口口口

⑦口⑥⑥
口⑦口口
口⑥口口 |--⑥-|
口口⑦⑦ |--⑦-|
42
⑥⑤⑤口 |--①②|
口口④① |③-④-|
⑤⑥②④ |--⑤-|
口③口口 |--⑥-|
43
口③口③ |--①-|
口①⑤② |②---|
④⑤④口 |③-④-|
①口②口 |--⑤-|
44
③⑦④口 |--①-|
口⑤口口 |②-③-|
⑦口⑥② |④-⑤-|
①口口口 |⑥-⑦-|
45
③口③口 |--①-|
②⑤①口 |②---|
口④⑤④ |③-④-|
口②口① |--⑤-|
46
⑤③⑤③ |--①-|
口口④口 |②-③-|
②⑤口⑤ |④---|
口口口① |⑤---|
47
口④⑤④ |①-②-|
⑤③④① |--③-|
③口③⑤ |--④-|
②口②口 |--⑤-|
48
口口口口 |①---|
口口口① |②---|
口口口口
②口②①

③④口④
口口口口
③口口口 |③---|
口口口⑤ |④--⑤|
49
口口⑤口 |①②③④|
①②③④ |--⑤-|
⑤口口⑤
口⑤口口

⑥⑥口⑥
⑦⑦口口
口口⑥口 |--⑥-|
口口⑦⑦ |--⑦-|
50
④口口口 |--①-|
口⑤口① |②-③-|
口②⑥口 |--④-|
③口口口 |⑤-⑥-|
51
口口口口 |①-②-|
③⑦⑤① |③-④-|
口⑥⑧口 |⑤-⑥-|
④口口② |⑦-⑧-|
52
③口⑥④ |--①-|
口口口② |②-③-|
①⑦口口 |④-⑤-|
口口⑤口 |⑥-⑦-|
53
口口口口 |①-②-|
①⑤⑦③ |③-④-|
⑧口⑥口 |⑤-⑥-|
②口口④ |⑦-⑧-|
54
④①⑤口 |①-②-|
⑪⑥口⑨ |③-④-|
口⑧⑦③ |⑤⑥⑦⑧|
口口②⑩ |⑨-⑩⑪|
55
③口口① |①-②-|
口⑦⑤口 |③-④-|
④口口② |⑤-⑥-|
口⑥⑧口 |⑦-⑧-|
56
口口口口 |--①-|
口口口口 |②-③-|
口口口③
②口口①

口④⑦口
⑩⑥口⑨
口口⑤口 |④⑤⑥⑦|
口⑧口⑪ |⑧⑨⑩⑪|
57
①口⑥④ |①-②-|
口⑦②⑧ |③-④-|
①⑤口④ |⑤-⑥-|
③⑦口⑧ |⑦-⑧-|
58
①口口② |--①-|
口口口口 |②---|
①口④② |----|
口口口③ |③-④-|
59
①口①口 |①-②-|
口②⑤口 |③-④-|
⑥⑦⑥③ |--⑤-|
④口④口 |⑥-⑦-|
60
③口⑤① |①-②-|
④⑩口② |③-④-|
口口口口 |⑤-⑥⑦|
⑥⑦⑧⑨ |⑧⑨⑩-|
61
口①④① |①---|
口口②口 |②-③-|
③⑥③口 |--④-|
口⑤口⑤ |⑤-⑥-|
62
①口口③ |①-②-|
②口⑩④ |③-④-|
口⑨口口 |⑤⑥⑦⑧|
⑤⑥⑦⑧ |⑨-⑩-|
63
口①口② |①---|
口口口② |--②-|
口口口② |----|
口口口口 |----|
64
②口①③ |①---|
②口口口 |--②-|
②口口口 |--③-|
口口口口 |----|
65
口④①⑤ |①--②|
④口⑤① |--③-|
③⑥口② |④--⑤|
⑥③②口 |--⑥-|
66
口口口口 |①---|
口①口口 |----|
口口①口 |----|
口口口口 |----|
67
口①④口 |①---|
④③②① |----|
①②③④ |--②-|
口④①口 |③-④-|
68
②②口① |--①-|
口口口① |-②--|
③口⑥口 |③-④-|
③⑤④④ |⑤-⑥-|
69
②①③① |----|
①②①③ |①---|
口①口① |--②-|
口④④口 |③-④-|
70
⑤④⑤① |--①-|
⑤口⑤口 |②-③-|
②⑤口⑤ |④---|
口口口③ |⑤---|
71
口④⑤④ |①-②-|
⑤③④① |--③-|
③口③⑤ |--④-|
②口②口 |--⑤-|
72
口口口口 |①---|
口口口① |②---|
口口口口
②口②①

③④口④
口口口口
③口口口 |③---|
口口口⑤ |④--⑤|
73
口口⑤口 |①②③④|
①②③④ |--⑤-|
⑤口口⑤
口⑤口口

⑥⑥口⑥
⑦⑦口口
口口⑥口 |--⑥-|
口口⑦⑦ |--⑦-|
74
④口口口 |--①-|
口⑤口① |②-③-|
口②⑥口 |--④-|
③口口口 |⑤-⑥-|
75
口⑤口口 |①②③④|
⑤口⑤口 |--⑤-|
口口口⑤
④③②①

⑥口口⑥
口⑥口⑥
⑦⑦⑦口 |--⑥-|
口口口⑦ |--⑦-|
76
口⑥③口 |①②③④|
④口⑤口 |⑤⑥⑦⑧|
口口口⑦
⑧②①口

⑫口口⑨
口⑩口⑪
口⑭⑬口 |⑨⑩⑪⑫|
口⑯口⑮ |⑬⑭⑮⑯|
77
口口①口 |①---|
口口口口 |②---|
②口口②
口口口口

口④④③
口口③口
口③口口 |--③-|
③④④口 |--④-|
78
①口口口 |--①-|
②①口① |----|
①口①③ |②---|
口口口① |③---|

不確定度: 0

最終更新:2015年01月15日 14:42