VERTeX
Hiro「maimai」より

ADVANCED

Level: 9
BPM: 237
Notes: 663

1
口口口口 |----|
口口口口 |----|
口口口口 |----|
口口口口
2
口口口口 |----|
口口口口 |----|
口口口口 |----|
口口口口
3
口口口口 |①---|
②口口① |--②-|
②口口① |----|
口口口口
4
口口口口 |①---|
口口③口 |②---|
口②口口 |③---|
口口①口
5
口口口口 |①---|
①口口② |--②-|
①口口② |----|
口口口口
6
口口口口 |①---|
口③口口 |②---|
口口②口 |③---|
口①口口
7
口口口口 |①---|
②口口① |--②-|
②口口① |----|
口口口口
8
口口口口 |①---|
口口③口 |②---|
口②口口 |③---|
口口①口
9
口口口口 |①---|
①口口② |--②-|
①口口② |----|
口口口口
10
口口口口 |①-②-|
口⑥⑤口 |③-④-|
口④③口 |⑤-⑥-|
口②①口
11
口口口口 |①---|
口口口③ |②---|
②口口口 |③---|
①口口口
12
口口口① |①---|
口③②口 |②-③-|
口⑤④口 |④-⑤-|
口口口口
13
口口口口 |①---|
③口口口 |②---|
口口口② |③---|
口口口①
14
①口口口 |①---|
口②③口 |②-③-|
口④⑤口 |④-⑤-|
口口口口
15
口口口口 |①---|
口口口③ |②---|
②口口口 |③---|
①口口口
16
口口口① |①---|
口③②口 |②-③-|
口⑤④口 |④-⑤-|
口口口口
17
口②①口 |①-②-|
④口口③ |③-④-|
口口口口 |⑤-⑥-|
⑥口口⑤
18
口口口口 |①-②-|
口②①口 |③-④-|
⑥口口⑤ |⑤-⑥-|
口④③口
19
口口①① |①---|
口口口口 |----|
口口口口 |----|
口口口口
20
口口口口 |----|
口口口口 |----|
口口口口 |----|
口口口口
21
口口口口 |①---|
口②口口 |②---|
口口③口 |③---|
①口口口
22
⑤④③⑤ |①-②-|
②口口① |③-④-|
口口口口 |--⑤-|
口口口口
23
口口口口 |----|
口口口口 |①---|
口口①口 |②---|
口②口口
24
口④④口 |①---|
②口口③ |②-③-|
口口口口 |--④-|
口口①口
25
口口口口 |----|
口①口口 |①---|
口口②口 |②---|
口口口口
26
⑤④③⑤ |①-②-|
②口口① |③-④-|
口口口口 |--⑤-|
口口口口
27
口口口口 |----|
口口③③ |①-②-|
口②口口 |--③-|
口口①口
28
①①②② |----|
口口口口 |--①-|
口口口口 |--②-|
口口口口
29
口口口口 |①---|
口②口口 |②---|
口口③口 |③---|
①口口口
30
⑤④③⑤ |①-②-|
②口口① |③-④-|
口口口口 |--⑤-|
口口口口
31
口口口口 |----|
口口口口 |①---|
口口①口 |②---|
口②口口
32
口④④口 |①---|
②口口③ |②-③-|
口口口口 |--④-|
口口①口
33
口口口口 |----|
口①口口 |①---|
口口②口 |②---|
口口口口
34
⑤④③⑤ |①-②-|
②口口① |③-④-|
口口口口 |--⑤-|
口口口口
35
口口口口 |①-②-|
口②①口 |----|
口②口口 |--③-|
口③口口
36
口口口口 |①---|
口口口口 |--②-|
口口①口 |----|
②口①②
37
口口口口 |①-②-|
①口③⑤ |③-④-|
口②⑥④ |⑤-⑥-|
口口口口
38
⑥口口⑤ |①-②-|
口①口口 |③-④-|
②口口口 |⑤-⑥-|
④口口③
39
口①①口 |①---|
口②口口 |----|
口③口口 |--②③|
口口口口
40
口口口口 |①---|
口口口口 |----|
口口口口 |----|
口①口口
41
口口口口 |①-②-|
⑤③口① |③-④-|
④⑥②口 |⑤-⑥-|
口口口口
42
⑤口口⑥ |①-②-|
口口①口 |③-④-|
口口口② |⑤-⑥-|
③口口④
43
口①①口 |①---|
口口②口 |----|
口口③口 |--②③|
口口口口
44
口口口口 |①---|
口口口口 |----|
口口口口 |----|
口口①口
45
口口口口 |①-②-|
①口③⑤ |③-④-|
口②⑥④ |⑤-⑥-|
口口口口
46
⑥口口⑤ |①-②-|
口①口口 |③-④-|
②口口口 |⑤-⑥-|
④口口③
47
口①①口 |①---|
口②口口 |----|
口③口口 |--②③|
口口口口
48
口口口口 |①---|
口口口口 |--②-|
口口口口 |----|
②①口②
49
口①口口 |①-②-|
口口②口 |③-④-|
口③⑥口 |⑤-⑥-|
口⑤④口
50
①口口口 |①-②-|
口口口② |③-④-|
③口口⑥ |⑤-⑥-|
⑤口口④
51
口③②口 |①-②-|
口①④口 |③-④-|
口⑤口口 |⑤---|
口口口口
52
①口口① |①---|
口口口口 |②---|
口口口口 |----|
②口口②
53
口口口口 |①---|
口①①口 |----|
口口口口 |----|
口①①口
54
①口口② |----|
口口口口 |①---|
口口口口 |②---|
②口口①
55
口口口口 |①---|
口①①口 |----|
口①①口 |----|
口口口口
56
口①①口 |①---|
①口口① |----|
口口口口 |----|
口口口口
57
口口口口 |①---|
口口口口 |----|
①口口① |----|
口①①口
58
口口口口 |----|
口口口口 |①---|
口②②口 |②---|
①口口①
59
①①①① |①---|
口②②口 |----|
口口口口 |②---|
口口口口
60
口口口口 |①---|
口口口口 |----|
口口口口 |----|
①①①①
61
口①①口 |①---|
口口口口 |----|
口①①口 |----|
口口口口
62
②口口① |----|
口口口口 |①---|
口口口口 |②---|
①口口②
63
口口口口 |①---|
口①①口 |----|
口①①口 |----|
口口口口
64
口①①口 |①---|
①口口① |----|
口口口口 |----|
口口口口
65
口口口口 |①---|
口口口口 |----|
①口口① |----|
口①①口
66
口口口口 |①---|
③口口③ |②---|
口②②口 |③---|
①口口①
67
口④③口 |①-②-|
口②①口 |③-④-|
口口口口 |--⑤-|
口⑤口口
68
口口口口 |①-②-|
⑥口口⑤ |③-④-|
④口口③ |⑤-⑥-|
②口口①
69
④④口口 |①-②-|
口②①口 |③-④-|
口口③口 |--⑤-|
⑤口口口
70
口口③③ |①-②-|
口口口口 |--③-|
口②口口 |--④-|
口口①④
71
④④口口 |①-②-|
口②①口 |③-④-|
口口③口 |--⑤-|
⑤口口口
72
口口③③ |①-②-|
口口口口 |--③-|
口②口口 |--④-|
口口①④
73
④④口口 |①-②-|
口②①口 |③-④-|
口口③口 |--⑤-|
⑤口口口
74
口口③③ |①-②-|
口口口口 |--③-|
口②口口 |--④-|
口口①④
75
②口口口 |①-②-|
②口①③ |--③-|
④口口③ |--④-|
④口口口
76
口口①① |--①-|
口口口口 |--②-|
口③③口 |--③-|
口②②口
77
口口口口 |①---|
①口口① |----|
口口口口 |----|
口口口口
78
口口口口 |①---|
③③③口 |②---|
口②②② |③---|
①①①口
79
口①①① |①---|
口口口口 |----|
口口口口 |----|
口口口口
80
①口口口 |----|
口口①口 |①---|
口口口口 |②---|
口②口②
81
口口口① |①---|
口②口③ |②---|
①口②口 |③---|
③口口口
82
口口①口 |①---|
①口②口 |②-③-|
口③口口 |④---|
口口④口
83
口⑤④口 |①---|
口口口口 |②-③-|
①口口① |④-⑤-|
③口口②
84
④口口③ |①-②-|
口⑥⑤口 |③-④-|
口②①口 |⑤-⑥-|
口口口口
85
口口口口 |①---|
口口口口 |----|
口口口① |----|
口口口口
86
口口口口 |----|
口口口口 |----|
口口口口 |----|
口口口口
87
口口口口 |----|
口口口口 |----|
口口口口 |----|
口口口口
88
①口口口 |①---|
①②口口 |②---|
口②③口 |③---|
口口③口
89
口口口① |①---|
口口口① |----|
口口口口 |----|
口口口口
90
口①①口 |①---|
口口口口 |----|
口口口口 |----|
口口口口
91
口口口口 |①---|
①①①① |----|
口口口口 |----|
口口口口
92
②⑥⑤① |①-②-|
口口口口 |③-④-|
口口口口 |⑤-⑥-|
④口口③
93
口口口口 |①---|
口口口① |----|
口口口① |----|
口口口口
94
口口口口 |①---|
口口①口 |----|
口口①口 |----|
口口口口
95
口口口口 |①---|
口①口口 |----|
口①口口 |----|
口口口口
96
口④③② |①-②-|
①口口口 |--③-|
①口口口 |--④-|
口口口口
97
口口口口 |①---|
口口口① |----|
口口口① |----|
口口口口
98
口口口口 |①---|
口口①口 |----|
口口①口 |----|
口口口口
99
口口口口 |①---|
口①口口 |----|
口①口口 |----|
口口口口
100
口口口口 |①---|
①③②口 |②---|
①③②口 |③---|
口口口口
101
口口口口 |①---|
口口口① |----|
口口口① |----|
口口口口
102
口口口口 |①---|
口口①口 |----|
口口①口 |----|
口口口口
103
口口口口 |①---|
口①口口 |----|
口①口口 |----|
口口口口
104
口④③② |①-②-|
①口口口 |--③-|
①口口口 |--④-|
口口口口
105
口口口口 |①---|
口口口① |----|
口口口① |----|
口口口口
106
口口口口 |①---|
口口①口 |----|
口口①口 |----|
口口口口
107
口口口口 |①---|
口①口口 |----|
口①口口 |----|
口口口口
108
口口口口 |①-②-|
⑥口口⑤ |③-④-|
④口口③ |⑤-⑥-|
②口口①
109
口口口口 |----|
口口口口 |----|
口口口口 |----|
口口口口
110
口口口口 |----|
口口口口 |----|
口口口口 |----|
口口口口
111
口口口口 |----|
口口口口 |----|
口口口口 |----|
口口口口
112
口口口口 |----|
口口口口 |----|
口口口口 |----|
口口口口
113
④④口口 |①-②-|
口②①口 |③-④-|
口口③口 |--⑤-|
⑤口口口
114
口口③③ |①-②-|
口口口口 |--③-|
口②口口 |--④-|
口口①④
115
④④口口 |①-②-|
口②①口 |③-④-|
口口③口 |--⑤-|
⑤口口口
116
口口③③ |①-②-|
口口口口 |--③-|
口②口口 |--④-|
口口①④
117
④④口口 |①-②-|
口②①口 |③-④-|
口口③口 |--⑤-|
⑤口口口
118
口口③③ |①-②-|
口口口口 |--③-|
口②口口 |--④-|
口口①④
119
②口口口 |①-②-|
②口①③ |--③-|
④口口③ |--④-|
④口口口
120
口口①① |--①-|
口口口口 |--②-|
口③③口 |--③-|
口②②口
121
口口口口 |①---|
①口口① |----|
口口口口 |----|
口口口口
122
口口口口 |①---|
③③③口 |②---|
口②②② |③---|
①①①口
123
口①①① |①---|
口口口口 |----|
口口口口 |----|
口口口口
124
①口口口 |----|
口口①口 |①---|
口口口口 |②---|
口②口②
125
口口口① |①---|
口②口③ |②---|
①口②口 |③---|
③口口口
126
口口①口 |①---|
①口②口 |②-③-|
口③口口 |④---|
口口④口
127
口⑤④口 |①---|
口口口口 |②-③-|
①口口① |④-⑤-|
③口口②
128
④口口③ |①-②-|
口⑥⑤口 |③-④-|
口②①口 |⑤-⑥-|
口口口口
129
口④口口 |①-②-|
口口口③ |③-④-|
口口⑤口 |⑤-⑥-|
②⑥口①
130
⑥口⑤① |①-②-|
②口口口 |③-④-|
口④口口 |⑤-⑥-|
口口③口
131
口④口口 |①-②-|
口口③① |③-④-|
②口口口 |⑤-⑥-|
⑥口口⑤
132
口口口③ |①-②-|
④②口口 |③-④-|
口⑥①口 |⑤-⑥-|
口口⑤口
133
②口⑤口 |①-②-|
口⑥③① |③-④-|
④口口口 |⑤-⑥-|
口口口口
134
口④口⑤ |①-②-|
口口口口 |③-④-|
口⑥③口 |⑤-⑥-|
②口口①
135
②口口口 |①-②-|
②口①③ |--③-|
④口口③ |--④-|
④口口口
136
口口①① |--①-|
口口口口 |--②-|
口③③口 |--③-|
口②②口
137
⑤口口口 |①-②-|
①③④① |③-④-|
口口口⑥ |⑤-⑥-|
口口口②
138
口口④② |①-②-|
口口口口 |③-④-|
③⑤口口 |⑤-⑥-|
①口口⑥
139
口③口口 |①-②-|
①口口④ |③-④-|
口口②⑥ |⑤-⑥-|
⑤口口口
140
口口②口 |①-②-|
口①⑥口 |③-④-|
③⑤口口 |⑤-⑥-|
口口④口
141
①⑤口② |①-②-|
口口口④ |③-④-|
口口⑥口 |⑤-⑥-|
口③口口
142
口口②口 |①-②-|
①⑤⑥口 |③-④-|
③口口口 |⑤-⑥-|
口口口④
143
口③口口 |①-②-|
⑥口口口 |③-④-|
口口④② |⑤-⑥-|
①⑤口口
144
⑥口①口 |①-②-|
口口⑤口 |③-④-|
口②口口 |⑤-⑥-|
④口口③
145
口口口⑤ |①-②-|
口④口② |③-④-|
③口⑥① |⑤-⑥-|
口口口口
146
⑥口口口 |①-②-|
⑤口④口 |③-④-|
口②口口 |⑤-⑥-|
①口口③
147
口口①⑥ |①-②-|
口④口② |③-④-|
③口口⑤ |⑤-⑥-|
口口口口
148
口口口口 |①-②-|
⑤口③口 |③-④-|
口⑥口口 |⑤-⑥-|
②①④口
149
③④②口 |①-②-|
口口口① |③-④-|
口口口⑥ |⑤-⑥-|
口口口⑤
150
口口口口 |①-②-|
⑤口口④ |③-④-|
⑥口口口 |⑤-⑥-|
①②③口
151
③口口③ |①-②-|
口②①口 |--③-|
口②①口 |--④-|
口④④口
152
口①①口 |①---|
口口口口 |----|
口口口口 |----|
口口口口

不確定度: 0

最終更新:2015年05月07日 16:07