EXORCISM
SOUND HOLIC feat. Nana Takahashi

EXTREME

Level: 9
BPM: 190
Notes: 709

1
口口口口 |----|
口口口口 |----|
口口口口 |----|
口口口口 |----|
2
口口口口 |①-②-|
③⑥口口 |③-④-|
②⑤⑧口 |⑤-⑥-|
①④⑦口 |⑦-⑧-|
3
口口口口 |①-②-|
⑦口①④ |③-④-|
⑥口口③ |⑤-⑥-|
⑤⑧口② |⑦-⑧-|
4
口口口口 |①-②-|
口口⑥③ |③-④-|
口⑧⑤② |⑤-⑥-|
口⑦④① |⑦-⑧-|
5
⑥⑨⑨③ |①-②-|
④①口⑦ |③④⑤-|
⑧口口⑤ |⑥⑦⑧-|
②口口口 |⑨---|
6
⑤口口③ |①-②-|
口①①⑦ |③-④-|
口④口口 |⑤---|
①②⑥① |⑥-⑦-|
7
⑤⑧④口 |--①-|
②⑥口口 |②-③-|
口③⑦口 |④-⑤⑥|
口①口口 |⑦-⑧-|
8
口口口④ |--①-|
②口口⑥ |②-③-|
口口口① |④---|
口③⑤口 |⑤-⑥-|
9
①⑨④口 |--①-|
⑤②⑧口 |②-③-|
③口口⑥ |④⑤⑥⑦|
⑦口口口 |⑧-⑨-|
10
口口口③ |①-②-|
口口口① |③-④-|
口④口口
口②口①

⑤口口口
口口口⑦
口口口口 |⑤---|
口口⑥口 |⑥-⑦-|
11
⑤⑧④口 |--①-|
②⑥口口 |②-③-|
口③⑦口 |④-⑤⑥|
口①口口 |⑦-⑧-|
12
口口口④ |--①-|
②口口⑥ |②-③-|
口口口① |④---|
口③⑤口 |⑤-⑥-|
13
④①口⑤ |--①-|
口④⑤口 |②-③-|
口⑦⑥② |④-⑤-|
⑦③口⑥ |⑥-⑦-|
14
口口口口 |①②-③|
①口口② |④-⑤-|
③口口④
口⑤口口
15
口①①口 |①---|
口②④口 |②---|
口口口口 |③---|
⑤口③口 |④-⑤-|
16
③口④口 |--①-|
②③口口 |--②-|
①②口口 |--③-|
口①口口 |--④-|
17
口①口口 |①---|
⑤口②口 |②-③-|
口③口口 |④---|
口口④⑥ |⑤-⑥-|
18
口③④口 |----|
口①②口 |①---|
口②①口 |②---|
口口口口 |③-④-|
19
④口口② |--①-|
口口口⑥ |②-③-|
口③口口 |④---|
口①⑤口 |⑤-⑥-|
20
⑤⑧④口 |--①-|
②⑥口口 |②-③-|
口③⑦口 |④-⑤⑥|
口①口口 |⑦-⑧-|
21
口口口④ |--①-|
②口口⑥ |②-③-|
口口口① |④---|
口③⑤口 |⑤-⑥-|
22
①⑨④口 |--①-|
⑤②⑧口 |②-③-|
③口口⑥ |④⑤⑥⑦|
⑦口口口 |⑧-⑨-|
23
口口口口 |①---|
口④口② |②---|
口①①口 |③---|
口③口⑤ |④-⑤-|
24
口④口③ |--①-|
口口③② |--②-|
口口②① |--③-|
口口①口 |--④-|
25
口口①口 |①---|
口②口⑤ |②-③-|
口口③口 |④---|
⑥④口口 |⑤-⑥-|
26
口④③口 |----|
口②①口 |①---|
口①②口 |②---|
口口口口 |③-④-|
27
④口口② |--①-|
口口口⑥ |②-③-|
口③口口 |④---|
口①⑤口 |⑤-⑥-|
28
⑤⑧④口 |--①-|
②⑥口口 |②-③-|
口③⑦口 |④-⑤⑥|
口①口口 |⑦-⑧-|
29
口口口④ |--①-|
②口口⑥ |②-③-|
口口口① |④---|
口③⑤口 |⑤-⑥-|
30
①③③口 |--①-|
④②②⑤ |②---|
④③③⑤ |③---|
②口口② |④-⑤-|
31
②口口② |----|
口③④口 |①---|
口口口口 |②---|
口①①口 |③-④-|
32
③②②④ |----|
①③④① |①---|
②口口② |②---|
口①①口 |③-④-|
33
口口口口 |----|
①口口① |①---|
口③④口 |②---|
口②②口 |③-④-|
34
①口④④ |----|
口口口口 |①---|
口③口口 |②---|
口口口② |③-④-|
35
口口口口 |----|
口①③口 |①---|
口口口口 |②---|
④④②口 |③-④-|
36
④④②口 |----|
口口口口 |①---|
口①③口 |②---|
口口口口 |③-④-|
37
口口口口 |----|
①③口口 |①---|
口口④口 |②---|
口口口② |③-④-|
38
口④④口 |----|
②口口③ |①---|
②口口③ |②-③-|
口①①口 |--④-|
39
口口口口 |--①-|
口③⑥口 |②-③-|
口②⑤口 |--④-|
口①④口 |⑤-⑥-|
40
①④④口 |--①-|
②口口口 |②-③-|
③口口口 |----|
口口口口 |--④-|
41
口口口口 |--①-|
口⑥③口 |②-③-|
口⑤②口 |--④-|
口④①口 |⑤-⑥-|
42
⑤⑤口口 |----|
⑤口①口 |--①②|
②口口口 |③-④-|
④④③③ |--⑤-|
43
口口③③ |----|
口④①③ |①②③-|
⑥②⑤口 |----|
⑥⑥口口 |④⑤⑥-|
44
④④⑤⑤ |----|
④口①⑤ |①②③-|
口②口③ |----|
口口③③ |④-⑤-|
45
口口⑧口 |--①-|
⑦③④口 |②-③-|
口⑨②⑩ |④⑤⑥⑦|
⑤①口⑥ |⑧⑨⑩-|
46
④口口③ |----|
口②②口 |①---|
口④③口 |②---|
口①①口 |③-④-|
47
口①口口 |--①-|
④⑤口② |②-③-|
口口⑥⑦ |④-⑤-|
③口口口 |⑥-⑦-|
48
⑥⑥④口 |--①-|
口口②口 |②-③-|
⑤③口口 |④-⑤-|
口①口口 |--⑥-|
49
⑥口口口 |--①-|
⑥口③口 |②-③-|
口④①口 |④-⑤-|
口②⑤口 |--⑥-|
50
口口①① |--①-|
口口口口 |--②-|
口④④② |--③-|
③③口② |--④-|
51
口③口③ |----|
②口口口 |----|
口口口口 |--①-|
口口①口 |②-③-|
52
口口口口 |----|
口口④① |①---|
口口口口 |②-③-|
②③口口 |④---|
53
①口①口 |①---|
口②口② |--②-|
③口③口 |----|
口口口口 |③---|
54
⑦②③口 |①---|
⑥④⑤口 |②③④-|
⑦⑥口⑤ |⑤-⑥-|
口①口① |--⑦-|
55
口口⑦① |--①-|
口②⑥口 |②-③-|
口⑤③口 |④-⑤-|
口④口口 |⑥-⑦-|
56
口⑦口口 |--①-|
①⑥口口 |②-③-|
口口⑤② |④-⑤-|
③口④口 |⑥-⑦-|
57
⑦⑦口口 |--①-|
⑤口⑥口 |②-③-|
口③口④ |④-⑤-|
口①口② |⑥-⑦-|
58
口口口① |--①-|
口口口① |--②-|
③④④口 |--③-|
③口②② |--④-|
59
口口口④ |----|
口口口① |①---|
口口⑤口 |②-③-|
②③口口 |④-⑤-|
60
②口①口 |--①-|
口⑤⑥口 |②-③-|
口⑦口口 |④-⑤-|
口口④③ |⑥-⑦-|
61
口口口⑤ |①---|
②口口口 |②-③-|
④口①③ |--④-|
口口口口 |⑤---|
62
口③口④ |----|
①口②口 |--①-|
③口④口 |②---|
口①口② |③-④-|
63
①口⑤口 |--①-|
口②口④ |②-③-|
口③⑥口 |④-⑤-|
口口口⑦ |⑥-⑦-|
64
④口口① |--①-|
口⑤②口 |②-③-|
⑥口口③ |④-⑤-|
口⑦口口 |⑥-⑦-|
65
口口⑥口 |--①-|
口⑦③⑤ |②-③-|
口②口口 |④-⑤-|
④口①口 |⑥-⑦-|
66
③口口口 |--①-|
口口④⑥ |②-③-|
口②口口 |④-⑤-|
⑤口⑥① |--⑥-|
67
口④③口 |--①-|
⑤②口口 |②-③-|
④口①③ |--④-|
口⑤口口 |--⑤-|
68
③口口② |--①-|
④口①④ |--②-|
口③②口 |--③-|
口口口① |--④-|
69
口⑨⑧口 |--①②|
口①②口 |③④⑤⑥|
③⑦⑩④ |⑦-⑧-|
口⑤⑥口 |⑨-⑩-|
70
③⑪口④ |--①②|
⑤①②⑥ |③④⑤⑥|
⑦口口⑧ |⑦⑧⑨⑩|
⑨口⑫⑩ |⑪-⑫-|
71
口口①口 |--①-|
口②③口 |②-③-|
口④⑤口 |④-⑤-|
口⑥⑦口 |⑥-⑦-|
72
①口⑥口 |--①-|
③口口② |②-③-|
⑤口口④ |④-⑤-|
口口口口 |--⑥-|
73
⑥⑥口口 |--①-|
⑥①②口 |②-③-|
口③④口 |④-⑤-|
口⑤口口 |--⑥-|
74
口口①① |--①-|
口④④① |--②-|
③④④② |--③-|
③③②② |--④-|
75
口⑤口⑤ |----|
④口口① |①---|
口口口口 |②-③-|
②口③口 |④-⑤-|
76
口口口口 |----|
口口④① |①---|
口口口口 |②-③-|
②③口口 |④---|
77
①口①口 |①---|
口②口② |--②-|
③口③口 |----|
口口口口 |③---|
78
⑦②③口 |①---|
⑥④⑤口 |②③④-|
⑦⑥口⑤ |⑤-⑥-|
口①口① |--⑦-|
79
口口⑦① |--①-|
口②⑥口 |②-③-|
口⑤③口 |④-⑤-|
口④口口 |⑥-⑦-|
80
口⑦口口 |--①-|
①⑥口口 |②-③-|
口口⑤② |④-⑤-|
③口④口 |⑥-⑦-|
81
⑧⑧口口 |--①-|
⑤口⑥口 |②-③-|
口③⑦④ |④-⑤-|
口①口② |⑥⑦⑧-|
82
⑥⑦口① |--①-|
口③口① |②③④-|
⑤⑧⑧口 |--⑤-|
⑤②④④ |⑥⑦⑧-|
83
口口口④ |----|
口口口① |①---|
口口⑤口 |②-③-|
②③口口 |④-⑤-|
84
②口①口 |--①-|
口⑤⑥口 |②-③-|
口⑦口口 |④-⑤-|
口口④③ |⑥-⑦-|
85
口口口⑤ |①---|
②口口口 |②-③-|
④口①③ |--④-|
口口口口 |⑤---|
86
口③口④ |----|
①口②口 |--①-|
③口④口 |②---|
口①口② |③-④-|
87
④口口口 |--①-|
口①⑥口 |②-③-|
口口口② |④---|
③口口⑤ |⑤-⑥-|
88
口④⑤① |--①-|
⑥口口⑦ |②-③-|
⑧②口口 |④⑤⑥⑦|
口口③口 |⑧---|
89
⑤口口③ |①-②-|
口①①⑦ |③-④-|
口④口口 |⑤---|
①②⑥① |⑥-⑦-|
90
⑤⑧④口 |--①-|
②⑥口口 |②-③-|
口③⑦口 |④-⑤⑥|
口①口口 |⑦-⑧-|
91
口口口④ |--①-|
②口口⑥ |②-③-|
口口口① |④---|
口③⑤口 |⑤-⑥-|
92
①⑨④口 |--①-|
⑤②⑧口 |②-③-|
③口口⑥ |④⑤⑥⑦|
⑦口口口 |⑧-⑨-|
93
口口口③ |①-②-|
口口口① |③-④-|
口④口口
口②口①

⑤口口口
口口口⑦
口口口口 |⑤---|
口口⑥口 |⑥-⑦-|
94
⑤⑧④口 |--①-|
②⑥口口 |②-③-|
口③⑦口 |④-⑤⑥|
口①口口 |⑦-⑧-|
95
口口口④ |--①-|
②口口⑥ |②-③-|
口口口① |④---|
口③⑤口 |⑤-⑥-|
96
④①口⑤ |--①-|
口④⑤口 |②-③-|
口⑦⑥② |④-⑤-|
⑦③口⑥ |⑥-⑦-|

不確定度: 0

最終更新:2015年05月24日 19:11