まるでマトリョーシカ
seiya-murai feat. ALT

EXTREME

Level: 8
BPM: 155
Notes: 614

1
口口口口 |----|
口口口口 |----|
口口口口 |----|
口口口口 |----|
2
口口口口 |①-②-|
③④②① |③-④-|
口口口口 |⑤-⑥-|
⑦⑧⑥⑤ |⑦-⑧-|
3
④⑤②① |①-②-|
口口口口 |--③-|
③③⑥⑥ |④-⑤-|
口口口口 |--⑥-|
4
口⑥③口 |①-②-|
①⑤④口 |③-④-|
②口口⑧ |⑤-⑥-|
口口口⑦ |⑦-⑧-|
5
口⑥③口 |①-②-|
⑥口口③ |--③-|
口②⑤口 |④-⑤-|
口④①口 |--⑥-|
6
⑧口口⑦ |①②③④|
口④③口 |⑤⑥⑦⑧|
口口口口
②⑥⑤①

口⑫⑪口
口⑯⑮口
⑭⑩⑨⑬ |⑨⑩⑪⑫|
口口口口 |⑬⑭⑮⑯|
7
口⑥③口 |①-②-|
⑥口口③ |--③-|
口口口口 |④-⑤-|
④⑤②① |--⑥-|
8
⑥口口⑤ |①②③④|
口②①口 |⑤⑥⑦⑧|
口⑧⑦口
④口口③

口⑩⑨口
⑭口⑬口
⑫口口⑪ |⑨⑩⑪⑫|
口⑯口⑮ |⑬⑭⑮⑯|
9
⑤③⑧① |①-②-|
⑥③⑨① |③-④-|
④⑦②⑩ |⑤⑥⑦-|
④口②口 |⑧⑨⑩-|
10
口口口③ |①---|
口口口口 |②-③-|
口口口口
②①①口

口口⑥口
口口口口
口④口口 |④---|
口⑤口口 |⑤-⑥-|
11
③口口② |①---|
口①①口 |②---|
口④④口 |③---|
②口口③ |④---|
12
口口②③ |①---|
①口口① |②-③-|
口⑥⑤口 |④-⑤-|
口④口口 |⑥---|
13
①口口② |①---|
③⑥⑥③ |②---|
口⑤⑤口 |③-④-|
②④④① |⑤-⑥-|
14
口口口口 |①---|
口口口③ |②-③-|
②⑤⑥口 |④---|
①④口① |⑤-⑥-|
15
②口口③ |①---|
口①①口 |②---|
口④④口 |③---|
③口口② |④---|
16
口③②口 |①--②|
⑦口口口 |③-④-|
①口口⑥ |⑤-⑥-|
⑤口口④ |⑦---|
17
口⑥⑥口 |①-②-|
⑥①②⑥ |③-④-|
口③④口 |⑤---|
口⑤⑤口 |⑥---|
18
②口口① |①---|
口口③口 |②--③|
口口口口
口口口口

口口口⑤
口④口口
口⑥口口 |④---|
口口口口 |⑤--⑥|
19
口口口口 |①---|
②口口口 |②--③|
口口①口 |④---|
口④③口 |----|
20
①口口② |①---|
口③④口 |②--③|
口口口口 |④---|
口口口口 |----|
21
口口口口 |①---|
口口口口 |②--③|
口④③口 |④---|
②口口① |----|
22
②口口① |①---|
口口③口 |②--③|
口口口口
口口口口

口口口⑤
口④口口
口⑥口口 |④---|
口口口口 |⑤--⑥|
23
口口口口 |①---|
②口口口 |②--③|
口口①口 |④---|
口④③口 |----|
24
①口口② |①---|
口③④口 |②--③|
口口口口 |④---|
口口口口 |----|
25
口口口⑤ |①---|
①口口① |②--③|
②口口② |④---|
④③③④ |⑤---|
26
⑤①口口 |①-②-|
①⑥④③ |--③-|
③④⑦② |④-⑤⑥|
⑨口②⑧ |⑦⑧⑨-|
27
⑤①口口 |①-②-|
①⑥④③ |--③-|
③④⑦② |④-⑤⑥|
⑨口②⑧ |⑦⑧⑨-|
28
口①②口 |①---|
口③口④ |②---|
④口③口 |③---|
口②①口 |④---|
29
①①⑥口 |①---|
口⑤④口 |--②-|
口③②口 |③-④-|
口口①① |⑤-⑥-|
30
⑤①口口 |①-②-|
①⑥④③ |--③-|
③④⑦② |④-⑤⑥|
⑨口②⑧ |⑦⑧⑨-|
31
⑤①口口 |①-②-|
①⑥④③ |--③-|
③④⑦② |④-⑤⑥|
⑨口②⑧ |⑦⑧⑨-|
32
口①②口 |①---|
口③口④ |②---|
④口③口 |③---|
口②①口 |④---|
33
①①口口 |①---|
口口口口 |--②-|
口口②口
口口①①

口⑤口口
口④口口
口③口口 |③-④-|
口口口口 |⑤---|
34
口口口⑤ |①---|
口④③口 |②--③|
②⑥口口 |④---|
①口口口 |⑤--⑥|
35
口口口口 |①---|
②口口⑤ |②--③|
口口①口 |④---|
口④③口 |⑤---|
36
①口口② |①---|
口③④口 |②--③|
⑤口口口 |④---|
口口口口 |⑤---|
37
口口⑤⑥ |①---|
口口口口 |②--③|
口④③口 |④---|
②口口① |⑤-⑥-|
38
口口口⑤ |①---|
①④③口 |②--③|
②⑥口口 |④---|
口口口口 |⑤--⑥|
39
口口口口 |①---|
②口口⑤ |②--③|
口口①口 |④---|
口④③口 |⑤---|
40
①口口② |①---|
口③口口 |②--③|
口口口口
口口口口

⑤口口口
口口④口
口口口口 |④---|
口口口口 |⑤---|
41
口口口⑤ |①---|
①口口① |②--③|
②口口② |④---|
④③③④ |⑤---|
42
⑤①口口 |①-②-|
①⑥④③ |--③-|
③④⑦② |④-⑤⑥|
⑨口②⑧ |⑦⑧⑨-|
43
⑤①口口 |①-②-|
①⑥④③ |--③-|
③④⑦② |④-⑤⑥|
⑨口②⑧ |⑦⑧⑨-|
44
口①②口 |①---|
口口口口 |②---|
口口口口
口②①口

口④口口
口③口口
口口③口 |③---|
口口④口 |④---|
45
口口①① |①---|
口口口口 |--②-|
口口②口
①①口口

口口⑥口
口⑤④口
口③口口 |③-④-|
口口口口 |⑤-⑥-|
46
⑤①口口 |①-②-|
①⑥④③ |--③-|
③④⑦② |④-⑤⑥|
⑨口②⑧ |⑦⑧⑨-|
47
⑤①口口 |①-②-|
①⑥④③ |--③-|
③④⑦② |④-⑤⑥|
⑨口②⑧ |⑦⑧⑨-|
48
口①②口 |①---|
口口口口 |②---|
口口口口
口②①口

口④口口
口③口口
口口③口 |③---|
口口④口 |④---|
49
⑦⑧③④ |①-②-|
⑤⑥①② |③-④-|
③④⑦⑧ |⑤-⑥-|
①②⑤⑥ |⑦-⑧-|
50
口口口口 |①---|
口口口① |----|
①口口口
口口口口

口口④口
③②口④
④口②③ |②-③-|
口④口口 |④---|
51
①口口① |①---|
④⑤②口 |②-③-|
口⑥③口 |④---|
④口口口 |⑤-⑥-|
52
③口口口 |①---|
口口口① |②---|
③④④口 |③---|
②口②① |④---|
53
⑥①①⑥ |①---|
①口口① |②-③-|
②口④口 |④-⑤-|
口③口⑤ |⑥---|
54
口口⑥口 |①---|
②口④① |②---|
口⑤口口 |③-④-|
③②①③ |⑤-⑥-|
55
①口口① |①---|
⑤④口② |②-③-|
口⑥③口 |④---|
口④口口 |⑤-⑥-|
56
口②口② |①---|
口口①口 |②---|
口口口口
口口①口

口口口口
口③口口
口口口口 |③---|
④③④口 |④---|
57
①口口① |①--②|
⑦③②⑥ |③-④-|
⑤口口口 |⑤-⑥-|
口口口④ |⑦---|
58
③⑥⑥① |①-②-|
⑥④②⑥ |③-④-|
口①③口 |⑤---|
②⑤⑤④ |⑥---|
59
①口口① |①---|
口②⑤④ |②-③-|
⑥③⑥③ |④---|
⑤④口② |⑤-⑥-|
60
口③口② |①-②-|
①③口口 |③-④-|
口口口口
口口①④

⑦口口口
⑦口口⑥
口⑤口⑧ |⑤-⑥-|
口⑤口口 |⑦-⑧-|
61
口①口① |①---|
口口口口 |②-③-|
③②口口
口口③②

口⑥④口
⑥⑤⑤④
口口口口 |④-⑤-|
口口口口 |⑥---|
62
口⑧⑦口 |①-②-|
口⑤⑤⑥ |③-④-|
③①③① |⑤-⑥-|
④⑤⑤② |⑦-⑧-|
63
①口口① |①---|
⑥②⑤③ |②-③-|
口④口④ |④---|
⑤③⑥② |⑤-⑥-|
64
口口口② |①-②-|
口口口口 |③-④-|
①③①口
口③口④

口⑤口口
口⑤口⑥
⑦口口⑧ |⑤-⑥-|
⑦口口口 |⑦-⑧-|
65
①口口① |①--②|
⑦③②⑥ |③-④-|
⑤口口口 |⑤-⑥-|
口口口④ |⑦---|
66
③口口① |①-②-|
口④②口 |③-④-|
口①③口
②口口④

口口口⑥
口口⑦口
口⑥口口 |⑤---|
⑦⑤⑤口 |⑥-⑦-|
67
④②①④ |①-②-|
②⑤⑤① |③---|
口④④口 |④---|
⑤③③⑤ |⑤---|
68
口①①口 |①---|
口口口口 |----|
口口口口 |----|
口①①口 |----|

不確定度: 0

最終更新:2015年05月07日 02:37