乙女繚乱 舞い咲き誇れ
日向美ビタースイーツ♪

EXTREME

Level: 9
BPM: 210
Notes: 784

1
口口口口 |----|
口口口口 |----|
口口口口 |----|
口口口口 |----|
2
⑦⑦⑥口 |--①-|
口⑤口④ |②-③-|
口③口② |④-⑤-|
①口口口 |⑥-⑦-|
3
口口口口 |--①-|
口口②口 |②---|
口④①② |③---|
④③口口 |④---|
4
⑧⑧③口 |①-②-|
⑥④口⑦ |③-④-|
②口口口 |⑤-⑥-|
口口①⑤ |⑦-⑧-|
5
口口口口 |--①-|
口口②口 |②---|
口④①② |③---|
④③口口 |④---|
6
口②①⑥ |①---|
口口口⑤ |②---|
④口口⑥ |③-④-|
口口口③ |⑤-⑥-|
7
①③①⑤ |--①-|
③口④口 |②---|
口④口⑤ |③-④-|
②口②口 |--⑤-|
8
①③①口 |--①-|
③口④口 |②---|
口④口口 |③-④-|
②口②口 |----|
9
口口③口 |①---|
⑥②⑤③ |②-③-|
①④①⑤ |--④-|
口①口① |⑤-⑥-|
10
口⑤口④ |--①-|
口口⑥口 |②-③-|
③⑦②口 |--④-|
口①⑧② |⑤⑥⑦⑧|
11
口口⑧⑦ |①-②-|
⑤⑥口口 |③-④-|
口口④③ |⑤-⑥-|
①②口口 |⑦-⑧-|
12
口口口口 |①-②-|
口口口口 |③-④-|
②⑥⑧④ |⑤-⑥-|
①⑤⑦③ |⑦-⑧-|
13
⑤口口口 |----|
①②③④ |①②③④|
口口口口 |⑤---|
口口口口 |----|
14
口口口口 |----|
①口口① |----|
①口口① |----|
口口口口 |--①-|
15
⑦口①④ |--①-|
口⑤口口 |②-③-|
口③②口 |④-⑤-|
口口口⑥ |⑥-⑦-|
16
口⑥⑥口 |①---|
口⑤①① |②-③-|
口③②④ |④---|
口口④口 |⑤-⑥-|
17
口口口口 |--①-|
口口口① |②---|
②④⑤③ |③-④-|
⑥②口⑥ |⑤-⑥-|
18
口⑥⑤口 |--①-|
口①④口 |②-③-|
⑥口口⑤ |④-⑤-|
口②③口 |--⑥-|
19
①口口② |--①-|
⑤口口⑥ |②-③-|
口⑦口口 |④-⑤-|
口③④口 |⑥-⑦-|
20
⑥①①口 |①---|
口③⑤口 |②-③-|
⑥口②口 |④---|
④口口④ |⑤-⑥-|
21
口口②① |①---|
③口口② |②---|
口④③① |③---|
口口口口 |--④-|
22
⑥口口⑤ |①---|
口③口④ |②-③-|
①⑥⑤口 |④-⑤-|
①①②口 |--⑥-|
23
口口口口 |--①-|
②③①口 |②-③-|
⑦口口⑥ |④-⑤-|
口口④⑤ |⑥-⑦-|
24
口口①⑥ |①---|
口⑤③① |②-③-|
口②口⑥ |④---|
口④④口 |⑤-⑥-|
25
①②③口 |①-②-|
⑤口口③ |③---|
④④口口 |④---|
⑥口口⑥ |⑤-⑥-|
26
口⑥⑤口 |--①-|
口③④口 |②-③-|
⑥口②⑤ |④-⑤-|
口①口口 |--⑥-|
27
⑤⑤④④ |--①-|
口口口口 |②-③-|
⑤①②④ |--④-|
③口口③ |--⑤-|
28
口口口⑥ |--①-|
③口口口 |②-③-|
口⑦⑦口 |④-⑤-|
⑤①②④ |⑥-⑦-|
29
口口口口 |--①-|
口②③口 |②-③-|
①口口④ |④-⑤-|
⑥⑤⑤⑥ |--⑥-|
30
④口口③ |--①-|
②④③① |②-③-|
⑤②①⑤ |④---|
口口口口 |--⑤-|
31
口口①口 |--①-|
口③口口 |②---|
⑤②口⑤ |③-④-|
口④口口 |--⑤-|
32
⑤①口⑤ |--①-|
口口③口 |②---|
口口②口 |③-④-|
口口④口 |--⑤-|
33
口口口口 |--①-|
口①③口 |②---|
口④②口 |③-④-|
⑤口口⑤ |--⑤-|
34
①口口② |--①-|
口口口口 |②-③-|
⑤口口⑤ |④---|
口③④口 |--⑤-|
35
③④口口 |--①-|
①②口口 |②---|
⑤口口⑤ |③-④-|
口口口口 |--⑤-|
36
口口④③ |--①-|
口口②① |②---|
⑤口口⑤ |③-④-|
口口口口 |--⑤-|
37
①③口口 |--①-|
口口口口 |②---|
⑤②④⑤ |③-④-|
口口口口 |--⑤-|
38
口口口口 |--①-|
口④④① |②-③-|
口口口口 |④---|
口③②口 |----|
39
口口①口 |①---|
口口口③ |--②---|
③②口口 |----③-|
①口口② |----|
40
③口口② |①---|
②口口口 |--②---|
口口口口 |----③-|
口①①③ |----|
41
口①①口 |①---|
口①④① |②---|
①①③口 |③---|
①①②口 |④---|
42
②口①④ |①---|
⑤口口③ |②-③-|
口口口口 |--④-|
口口口口 |⑤---|
43
口口口口 |①-②-|
口⑧⑥口 |③-④-|
④⑦⑤② |⑤-⑥-|
③口口① |⑦-⑧-|
44
①④④① |①--②|
②⑥⑥② |--③-|
⑥口口⑥ |④---|
③⑤⑤③ |⑤-⑥-|
45
①④④口 |--①-|
口⑦口② |②-③-|
⑦⑤⑤口 |④-⑤-|
③⑦口⑥ |⑥-⑦-|
46
③口④② |--①-|
①口口④ |②-③-|
口⑤⑤口 |④---|
口口口口 |⑤---|
47
④①口④ |①---|
②口口③ |②---|
③口口② |③---|
⑤口①⑤ |④-⑤-|
48
口口口口 |----|
口口口口 |----|
口口口口 |----|
口②①口 |①-②-|
49
口⑤②② |①-②-|
③口④④ |③-④-|
口⑦⑥⑥ |⑤-⑥-|
①口⑧⑧ |⑦-⑧-|
50
口口②② |①-②-|
口①④④ |③-④-|
③口⑥⑥ |⑤-⑥-|
口⑤⑦⑦ |--⑦-|
51
⑤②④⑤ |①---|
②③口④ |②---|
③①口口 |③-④-|
①口口口 |--⑤-|
52
⑦⑦⑦⑦ |--①-|
口⑥口口 |②-③-|
④口⑤② |④-⑤-|
③口口① |⑥-⑦-|
53
⑦⑦口口 |--①-|
④口口④ |②-③-|
⑦③⑥口 |④-⑤-|
⑤①②⑤ |⑥-⑦-|
54
口口④口 |--①-|
口③②④ |②-③-|
口口口口 |④---|
⑤①口⑤ |⑤---|
55
⑤口口口 |①---|
③口口③ |②---|
④①②④ |③-④-|
口⑤口口 |--⑤-|
56
口口口② |--①-|
口口①口 |--②-|
口①口口 |----|
③口②③ |③---|
57
口⑤④口 |①-②-|
⑤③口④ |③-④-|
⑤口②④ |⑤---|
口①口口 |----|
58
①口口② |①-②-|
口⑤④口 |③-④-|
口⑤④口 |⑤---|
⑤③口④ |----|
59
④①①④ |①-②-|
口口⑥⑥ |③-④-|
②口⑥② |⑤---|
⑤③③⑤ |⑥---|
60
口口口口 |①---|
①①口口 |----|
口①口口 |----|
口口口口 |----|
61
①口④口 |①-②-|
口口③口 |--③-|
⑤口②口 |--④-|
口口口口 |⑤---|
62
口口口② |①---|
②③口口 |--②---|
口口③口 |----③-|
口①口① |----|
63
②口口③ |①---|
口③口口 |--②---|
口口口① |----③-|
①口②口 |----|
64
口①口口 |①---|
口口口口 |----|
口口②① |②---|
口口口口 |----|
65
口口口口 |①---|
口口口口 |----|
口①口口 |----|
口口口口 |----|
66
口口口口 |①---|
①口口口 |----|
口口口口 |----|
口口口口 |----|
67
口口口口 |①---|
口口口① |----|
口口口② |②---|
口口口口 |----|
68
③口口口 |①---|
⑤④①口 |----|
口口②口 |②---|
口口口口 |-③④⑤|
69
口口口③ |①---|
口口④⑤ |----|
口①口口 |②---|
口②口口 |-③④⑤|
70
口口口口 |①---|
口口口口 |----|
口口①口 |②---|
口口②口 |----|
71
②口口① |①---|
口口口口 |----|
口口口口 |②---|
口口口口 |----|
72
口口①口 |①---|
口②③口 |--②-|
口④口口 |③---|
口口口口 |--④-|
73
口口口口 |①---|
口口口口 |②-③-|
⑤口①口 |----|
④②③口 |④-⑤-|
74
口⑤口口 |①---|
①口②口 |②-③-|
口口口③ |--④-|
口④口口 |--⑤-|
75
口口口口 |--①-|
口④③口 |②-③-|
口②①口 |④---|
口口口口 |----|
76
口口①口 |①---|
口口②口 |----|
口③口口 |②---|
口口口口 |--③-|
77
口口口口 |①---|
口口口口 |②-③-|
⑤口①口 |----|
④②③口 |④-⑤-|
78
口口口② |①---|
①口口口 |----|
口口口口 |②---|
口口口口 |----|
79
口口口口 |①-②-|
口②①口 |③-④-|
口口⑤口 |⑤---|
口④③口 |----|
80
①口口① |①---|
口口口口 |----|
口口口口 |----|
口口口口
81
口口口口 |----|
口口口口 |①---|
口②②口 |②---|
口①①口
82
①口口① |①---|
口口口③ |②---|
②口口② |--③-|
口口③口
83
②口口口 |①---|
①③口口 |----|
口口口口 |②-③-|
口①口口
84
口口③口 |①---|
口口②口 |②---|
口口①口 |③---|
口口口口
85
口口口② |①---|
口口③口 |----|
口口口口 |②-③-|
口①口口
86
口③②口 |①---|
③口口② |②-③-|
④①①⑤ |--④-|
口④⑤口 |⑤---|
87
②口口① |①-②-|
口③④口 |--③-|
口②①口 |④---|
③⑤⑤④ |⑤---|
88
④口①⑤ |①-②-|
口口口口 |③-④-|
②⑥口③ |⑤-⑥-|
⑧口⑦⑧ |⑦-⑧-|
89
④⑤①④ |①--②|
⑤②口① |--③-|
③口②⑤ |④---|
口③⑤口 |--⑤-|
90
①口②口 |----|
口①口② |----|
②口①口 |----|
口②口① |①-②-|
91
口口口① |----|
①口口口 |----|
②口②① |--①-|
①②口② |--②-|
92
口①口口 |①---|
口口②③ |②---|
口④⑤口 |③---|
口口口口 |④-⑤-|
93
①④口口 |--①-|
口⑤口口 |②-③-|
口口口③ |④-⑤-|
口⑦⑥② |⑥-⑦-|
94
口⑦②④ |①-②-|
③口④② |③-④-|
口⑤⑥⑧ |⑤-⑥-|
①口⑧⑥ |⑦-⑧-|
95
口口②④ |①-②-|
口⑤④② |③-④-|
口口⑥⑦ |⑤-⑥-|
①③⑦⑥ |--⑦-|
96
⑤②④⑤ |①---|
②③口④ |②---|
③①口口 |③-④-|
①口口口 |--⑤-|
97
⑧⑧⑧⑧ |①-②-|
口口口口 |③-④-|
口⑥④② |⑤-⑥-|
⑦⑤③① |⑦-⑧-|
98
口⑦口口 |--①-|
⑦④④① |②-③-|
②⑦⑥口 |④-⑤-|
口⑤⑤③ |⑥-⑦-|
99
④口口④ |--①-|
口⑥⑤① |②-③-|
②⑧⑦口 |④-⑤⑥|
③⑩⑨③ |⑦⑧⑨⑩|
100
⑤②①口 |①---|
口口口口 |②---|
④口口④ |③-④-|
③⑤口③ |--⑤-|
101
口口口② |--①-|
口口①口 |--②-|
口①口口 |----|
③口②③ |③---|
102
口⑤④口 |①-②-|
⑤③口④ |③-④-|
⑤口②④ |⑤---|
口①口口 |----|
103
①口口② |①-②-|
口⑤④口 |③-④-|
口⑤④口 |⑤---|
⑤③口④ |----|
104
④①①④ |①-②-|
口口⑥⑥ |③-④-|
②口⑥② |⑤---|
⑤③③⑤ |⑥---|
105
⑧④口⑤ |①---|
①①⑦口 |②---|
⑩①⑨③ |③④⑤⑥|
⑥②②口 |⑦⑧⑨⑩|
106
口②①口 |①---|
②口口① |----|
口口口③ |②---|
口口③口 |③---|
107
①口③① |①---|
口口口③ |②---|
③口口口 |③---|
②③口② |----|
108
⑥口口⑤ |①-②-|
口②①口 |③-④-|
口④③口 |⑤---|
⑤口口⑥ |⑥---|
109
口口①口 |①---|
①口口① |----|
①口口① |----|
口①口口 |----|

不確定度: 0

最終更新:2015年03月24日 20:41