朱と碧のランページ
NU-KO

EXTREME

Level: 9
BPM: 178
Notes: 753

1
口口口口 |----|
口口口口 |----|
口口口口 |----|
口口口口 |----|
2
口②①⑥ |①-②-|
②口口① |③-④-|
口④③⑥ |--⑤-|
④⑤⑤③ |--⑥-|
3
①口口口 |--①-|
口②②口 |--②-|
①口口口 |----|
②口口② |----|
4
口口口口 |----|
口口口口 |----|
口口口口
口口口口
5
⑦口④① |①-②-|
③⑥口口 |③-④-|
⑤②⑧口 |⑤-⑥-|
①④口⑦ |⑦-⑧-|
6
口②口⑥ |①-②-|
口口④① |③-④-|
口口口③ |⑤---|
⑤口②口 |⑥---|
7
①④口⑦ |①-②-|
⑤②⑧口 |③-④-|
③⑥口口 |⑤-⑥-|
⑦口④① |⑦-⑧-|
8
⑦口②⑥ |①-②-|
口⑤口③ |③-④-|
口口④① |⑤-⑥-|
口②⑧口 |⑦-⑧-|
9
口④口口 |①---|
②口口③ |----|
口①口口 |--②-|
口口口口 |③-④-|
10
口口口口 |①---|
口口口口 |----|
口口①③ |②---|
口口口② |③---|
11
口口口① |①---|
口口口口 |②-③-|
口②③口 |----|
口口口口 |----|
12
口口口口 |----|
口②口口 |----|
①口口③ |--①-|
口口口口 |②-③-|
13
口口③口 |①---|
口口①口 |----|
口②④口 |--②-|
口口口口 |③-④-|
14
口①口口 |①---|
口③口② |--②-|
口口口口 |----|
②口口口 |③---|
15
口③②口 |①---|
口口口④ |②-③-|
口①口口 |----|
口口口口 |④---|
16
口②口口 |①---|
口口③口 |----|
①④口口 |--②-|
口口口口 |③-④-|
17
⑤口口口 |①---|
③口⑥⑤ |②---|
②口④口 |③-④-|
①口口① |⑤-⑥-|
18
口④③① |①---|
口③口④ |②---|
口②③口 |③---|
口①口④ |④---|
19
⑤口口③ |①---|
④口①口 |②-③-|
②口口② |④---|
①口①口 |⑤---|
20
口⑤口口 |①---|
口③⑥⑤ |②---|
口②④口 |③-④-|
口①口口 |⑤-⑥-|
21
④口口① |①---|
③口④口 |②---|
②口⑤口 |③---|
①口口口 |④-⑤-|
22
口⑤口③ |①---|
口④口口 |②-③-|
口②口⑤ |④---|
口①①口 |⑤---|
23
口口口口 |①---|
口③口口 |②-③-|
口口②口 |----|
①口口① |----|
24
口①口① |----|
②口②口 |--①-|
口③口③ |②-③-|
④⑤④⑤ |④-⑤-|
25
口②口口 |①---|
口①③① |②-③-|
口④⑤口 |--④-|
口口口口 |--⑤-|
26
口②①口 |----|
②口口① |--①-|
④⑤⑤③ |②-③-|
口④③口 |④-⑤-|
27
口③②口 |①---|
④①①⑤ |②-③-|
④口口⑤ |--④-|
口⑥⑥口 |⑤-⑥-|
28
口②①① |----|
②②①⑤ |--①-|
⑤④③③ |②-③-|
④④口③ |④-⑤-|
29
①口④口 |①---|
口③②口 |②-③-|
口口口口 |--④-|
口⑤①口 |--⑤-|
30
口口口口 |----|
口口口口 |--①-|
口②①口 |②---|
口口口口 |----|
31
③④②① |①-②-|
④③①② |③-④-|
⑥⑤⑤⑥ |--⑤-|
口口⑤⑥ |--⑥-|
32
口④④口 |----|
口口③③ |--①-|
口②②⑤ |②-③-|
①①口⑤ |④-⑤-|
33
①口口口 |①---|
①②口口 |②-③-|
口口③口 |--④-|
口④⑤口 |--⑤-|
34
①口口② |----|
口③④口 |--①-|
口①②口 |②-③-|
③口口④ |④---|
35
口口口口 |①---|
①口口① |②-③-|
①②口①
口口③口

④口口④
⑤口口⑤
口口口口 |--④-|
口口口口 |--⑤-|
36
口口口口 |--①-|
口口口口 |②---|
口②①口 |----|
口口口口 |----|
37
①③②④ |①-②-|
⑥口口⑤ |③-④-|
⑥口口⑤ |--⑤-|
④②③① |--⑥-|
38
口①①口 |--①-|
口④④口 |②---|
口③③口 |③---|
口②②口 |④---|
39
①①①① |①---|
口口口口 |--②-|
②②②② |----|
③③③③ |③---|
40
口口③② |--①-|
①①①① |----|
口口③② |②---|
口口口口 |③---|
41
口口口口 |①---|
口口②口 |②---|
②口口口
①口口①

⑤口④口
③口口口
口口口口 |③--④|
口口③⑥ |⑤-⑥-|
42
口口口口 |①--②|
口口口① |③-④-|
口③②口
口①④口

口⑥⑤⑦
口⑤口⑧
口口口口 |⑤---|
口口口口 |⑥-⑦⑧|
43
⑤口④口 |①---|
③口②口 |②---|
②口⑥① |③--④|
①口口③ |⑤-⑥-|
44
口④④① |①---|
口③口④ |②---|
口②口口 |③---|
口①口口 |④---|
45
⑥口口① |①--②|
⑤口口口 |③-④-|
③口②⑤ |⑤---|
①口口④ |⑥---|
46
口⑥①口 |①--②|
口⑤口⑤ |③-④-|
口③②口 |⑤---|
口①口④ |⑥---|
47
⑥口口口 |①--②|
⑤口口⑤ |③-④-|
③口②① |⑤---|
①口⑥④ |⑥---|
48
口②①口 |①-②-|
口口口口 |③-④-|
口④③口
口口口口

口⑫⑩口
口⑪⑨口
⑧口口⑥ |⑤⑥⑦⑧|
⑦口口⑤ |⑨⑩⑪⑫|
49
③⑤⑤③ |①---|
②口口① |②---|
口口口口 |③--④|
④②①④ |--⑤-|
50
③口⑦⑥ |①--②|
②①④⑤ |--③-|
④⑤②① |④--⑤|
口③⑥口 |--⑥⑦|
51
②①口口 |①---|
②①⑥⑥ |②---|
⑤⑤④② |③-④-|
口③口② |⑤-⑥-|
52
②①①① |①--②|
口②口口 |--③-|
口⑤④③ |④--⑤|
③④⑥② |--⑥-|
53
①⑥⑥① |①--②|
口口口口 |--③-|
②④③② |④-⑤-|
⑤口口⑤ |--⑥-|
54
口口口口 |--①-|
口③①口 |②-③-|
⑤口口⑤ |④-⑤-|
口④②口 |----|
55
口③②① |①--②|
③②①口 |--③-|
口⑤⑤口 |④---|
口④④口 |⑤---|
56
①口口① |①---|
⑤①①③ |----|
口口口口 |②-③-|
②口口④ |④-⑤-|
57
③②①口 |①-②-|
口④口口 |③-④-|
口③②①
④口口口

口口⑦⑦
口口⑤⑥
口口口⑦ |⑤-⑥-|
口⑤⑥口 |--⑦-|
58
①①口口 |--①-|
口②②口 |--②-|
①②②口 |--③-|
②④③② |④---|
59
⑥②①⑥ |①-②-|
②⑥⑥① |③-④-|
⑥④③⑥ |--⑤-|
④⑤⑤③ |--⑥-|
60
口口口口 |----|
口口口口 |----|
口口口口 |----|
口口口口 |----|
61
口③⑫⑧ |①-②③|
⑨⑪④① |④⑤⑥⑦|
⑬⑦⑭② |⑧⑨⑩⑪|
⑤⑮⑥⑩ |⑫⑬⑭⑮|
62
①③口口 |①②③④|
口口⑥④ |⑤⑥⑦⑧|
口⑦口②
⑤口⑧口

⑮口⑭⑩
⑨⑪口口
⑬口⑯口 |⑨⑩⑪⑫|
口口口⑫ |⑬⑭⑮⑯|
63
口③口口 |①②③④|
⑧口口⑤ |⑤⑥⑦⑧|
口⑥口②
④①⑦口

⑭⑯口⑨
口⑩⑬口
⑫口⑮口 |⑨⑩⑪⑫|
口口口⑪ |⑬⑭⑮⑯|
64
口口⑦⑨ |①②③④|
⑥口口③ |⑤⑥⑦⑧|
口④口① |⑨---|
②⑧⑤口 |----|
65
④④⑦⑦ |①-②-|
口口①口 |③-④-|
口②③口 |--⑤-|
口⑥⑤口 |⑥-⑦-|
66
口口口③ |----|
②口①口 |①---|
口②口① |②---|
③口口口 |③---|
67
②口口口 |①---|
口①③口 |--②-|
口③①口 |----|
口②口口 |③---|
68
口口口① |--①-|
口口口口 |----|
口口口② |②---|
口口①③ |③---|
69
③口口口 |①---|
②④口口 |②---|
①口口口 |③---|
口口口口 |④---|
70
口③④口 |①--②|
口口②口 |--③-|
口①口⑤ |④---|
口口口口 |--⑤-|
71
②⑤口口 |①---|
口口④口 |②---|
口③①口 |③--④|
口口口口 |--⑤-|
72
口口①口 |①---|
口口口口 |----|
口口口口 |----|
口口口口 |----|
73
⑥口⑤口 |①--②|
⑤口⑥④ |③-④-|
③口②口 |⑤---|
①口口① |⑥---|
74
口④④口 |①---|
口③⑤口 |②---|
口②①口 |③---|
口①口口 |④-⑤-|
75
⑦口口⑧ |①-②-|
⑤口口⑥ |③-④-|
③口①④ |⑤-⑥-|
①口口② |⑦-⑧-|
76
口②①口 |①-②-|
口口口口 |③-④-|
口④③口
口口口口

口⑫⑩口
口⑪⑨口
⑧口口⑥ |⑤⑥⑦⑧|
⑦口口⑤ |⑨⑩⑪⑫|
77
③⑤⑤③ |①---|
②口口① |②---|
口口口口 |③--④|
④②①④ |--⑤-|
78
③口⑦⑥ |①--②|
②①④⑤ |--③-|
④⑤②① |④--⑤|
口③⑥口 |--⑥⑦|
79
②①口口 |①---|
②①⑥⑥ |②---|
⑤⑤④② |③-④-|
口③口② |⑤-⑥-|
80
②①①① |①--②|
口②口口 |--③-|
口⑤④③ |④--⑤|
③④⑥② |--⑥-|
81
①⑥⑥① |①--②|
口口口口 |--③-|
②④③② |④-⑤-|
⑤口口⑤ |--⑥-|
82
口口口口 |--①-|
口③①口 |②-③-|
⑤口口⑤ |④-⑤-|
口④②口 |----|
83
口③②① |①--②|
③②①口 |--③-|
口⑤⑤口 |④---|
口④④口 |⑤---|
84
①口口① |①---|
⑤①①③ |----|
口口口口 |②-③-|
②口口④ |④-⑤-|
85
③②①口 |①-②-|
口④口口 |③-④-|
口③②①
④口口口

口口⑦⑦
口口⑤⑥
口口口⑦ |⑤-⑥-|
口⑤⑥口 |--⑦-|
86
①①口口 |--①-|
口②②口 |--②-|
①②②口 |--③-|
②④③② |④---|
87
⑥②①⑥ |①-②-|
②⑥⑥① |③-④-|
⑥④③⑥ |--⑤-|
④⑤⑤③ |--⑥-|
88
口口口口 |----|
口口口口 |----|
口口口口 |----|
口口口口 |----|
89
①②⑧⑦ |①-②-|
③口④口 |③-④-|
⑦⑥口① |⑤-⑥-|
⑤④口口 |⑦-⑧-|
90
口口口⑦ |①-②-|
口②⑤① |③-④-|
口⑥④口 |⑤-⑥-|
口口②③ |--⑦-|

不確定度: 0

最終更新:2016年04月12日 02:52