Thank You Merry Christmas
VENUS

EXTREME

Level: 9
BPM: 220
Notes: 747

1
口口口口 |----|
口口口口 |----|
口口口口 |----|
口口口口 |----|
2
口口口口 |①---|
口口口口 |----|
口②口口 |②---|
口口①口 |----|
3
②口口③ |①---|
口口①口 |----|
口口口口 |②---|
口口口口 |③---|
4
口口口口 |①---|
口②③口 |②---|
口④①口 |③---|
口口口口 |④---|
5
口口口① |①---|
②口口口 |----|
③口口口 |②---|
口口口口 |③---|
6
口口口口 |①---|
口口口口 |----|
口口口口 |----|
①口口口 |----|
7
口口口口 |----|
口口口口 |----|
口口口口 |----|
口口口口 |----|
8
口口口口 |①---|
口口口口 |----|
口①口口 |----|
口口口口 |----|
9
口口口① |①---|
口②③口 |----|
口口口口 |②---|
口口口口 |③---|
10
口口口口 |----|
口口口口 |----|
口口口口 |----|
口口口口 |----|
11
口口口口 |----|
口口口口 |----|
口口口口 |----|
口口口口 |----|
12
口口口口 |----|
口口口口 |----|
口口口口 |----|
口口口口 |----|
13
口口口① |①---|
口口口口 |----|
口口口口 |----|
口口口口 |----|
14
②①口④ |①---|
口⑤口口 |②---|
口口口口 |③---|
口口③口 |④---⑤-|
15
口口口口 |----①-|
口口①口 |②---③-|
口④③口 |④---|
②口口⑤ |⑤---|
16
②①口⑤ |①---|
口④③⑤ |②---|
口口口口 |③---④-|
口⑥口口 |⑤---⑥-|
17
口口③口 |----①-|
口口③口 |②---|
②口口口 |③---|
②口①④ |④---|
18
口口口口 |①---|
①③口口 |②---|
口口口口 |③---|
④②口口 |④---|
19
口口口口 |①---|
口口④① |②---|
口口口口 |③---|
口口②③ |④---|
20
口①②口 |①---|
②③④① |②---|
④口口③ |③---|
口口口口 |④---|
21
①口口② |①---|
口口口口 |②---|
④口口③ |③---|
口①②口 |④---|
22
①④⑤② |①---|
⑥①②③ |②---|
口②①口 |③---④-|
②口口① |⑤---⑥-|
23
①口口② |①---|
口口口口 |②---|
④口口③ |③---|
口①②口 |④---|
24
①④⑤② |①---|
⑥①②③ |②---|
口②①口 |③---④-|
②口口① |⑤---⑥-|
25
①口口② |①---|
口口口口 |②---|
④口口③ |③---|
口①②口 |④---|
26
①④⑤② |①---|
⑥①②③ |②---|
口②①口 |③---④-|
②口口① |⑤---⑥-|
27
①口口② |①---|
口口口口 |②---|
④口口③ |③---|
口①②口 |④---|
28
①口口② |①---|
③①②口 |②---|
口②①口 |③---|
②口口① |----|
29
口②③口 |①---|
④口口① |②---|
④口口① |③---|
口②③口 |④---|
30
①④⑤② |①---|
口①②③ |②---|
⑥②①口 |③---④-|
②口口① |⑤---⑥-|
31
口口口口 |----①-|
④口口口 |②---③-|
口②口③ |④---|
⑤口①⑤ |⑤---|
32
口①口① |①---|
口①①① |----②-|
②口①② |----③-|
口④③口 |④---|
33
口口口口 |----|
口口口口 |①---|
口口口口 |②---|
②口③① |③---|
34
①①②口 |①---|
①①②口 |----|
①①②② |②---|
口口口口 |----|
35
①①②③ |①---|
①口②③ |----|
口①②口 |②---|
①①②② |----③-|
36
口①口口 |----|
①口口口 |----|
口口口口 |①-②-|
口口口② |----|
37
口口口口 |①-②-③-|
口⑥⑤④ |④-⑤-⑥-|
①②③口 |⑦---|
口⑦⑦口 |----|
38
③口口口 |①---|
口口④② |②---|
口口口口 |③---|
①口③① |④---|
39
口口③① |①---|
④②口口 |②---|
口口口口 |③---|
③①口口 |④---|
40
①②③④ |①---|
口口口口 |②---|
口口口口 |③---|
④③②① |④---|
41
口口⑤口 |①---②-|
口②③⑤ |③---④-|
⑥④口① |⑤---|
口⑥口口 |⑥---|
42
①口口① |①---|
口口口口 |②---|
口④③② |③---|
口口④③ |④---|
43
口②③④ |①---|
②③④口 |②---|
①口口口 |③---|
口①口口 |④---|
44
口⑥⑤口 |①---②-|
口口口口 |③---|
④口口① |④---⑤-|
④②③① |⑥---|
45
④口口① |①---②-|
④⑥⑤① |③---|
口②③口 |④---⑤-|
口口口口 |⑥---|
46
口⑧口③ |①---②-|
口口口⑤ |③---④-|
②④口⑦ |⑤---⑥-|
⑥①①口 |⑦---⑧-|
47
②口口口 |①---|
口口口口 |----|
口口口口 |②---|
口口①① |----|
48
口①口① |①---|
②①①① |----|
②①口① |②---|
②②③③ |----③-|
49
口②口① |----|
②口口口 |----|
口口口口 |①---|
口口口口 |②---|
50
①口口③ |①---|
口口口口 |②---|
②口口④ |③---|
口口口口 |④---|
51
②口口② |①---|
口口③口 |----|
口③口口 |②---|
口①①口 |③---|
52
口口口口 |①---|
①②④③ |②---|
③④②① |③---|
口口口口 |④---|
53
①口③口 |①---|
①口口② |----|
②口口① |②---|
口③口① |③---|
54
①口口① |①---②-|
口口口口 |③---④-|
⑧⑥④② |⑤---⑥-|
口⑦⑤③ |⑦---⑧-|
55
口口口② |①---|
口口口口 |----|
口口口口 |②---|
①③③口 |③---|
56
③⑤⑦口 |①---②-|
②④⑥⑧ |③---④-|
口口口口 |⑤---⑥-|
①口口① |⑦---⑧-|
57
②③口① |①---|
口口口口 |----|
口口口口 |②---|
口口口口 |----③-|
58
口口口口 |①---|
口口④② |②---|
口口口口 |③---|
口口③① |④---|
59
②②③③ |①---|
口口口口 |----|
口口口口 |②---|
①①口口 |③---|
60
口口口口 |----|
③口口口 |①---|
①②口口 |②---|
口口口口 |③---|
61
①口口② |①---|
口口口口 |②---|
④口口③ |③---|
口①②口 |④---|
62
①④⑤② |①---|
⑥①②③ |②---|
口②①口 |③---④-|
②口口① |⑤---⑥-|
63
①口口② |①---|
口口口口 |②---|
④口口③ |③---|
口①②口 |④---|
64
①④⑤② |①---|
⑥①②③ |②---|
口②①口 |③---④-|
②口口① |⑤---⑥-|
65
①口口② |①---|
口口口口 |②---|
④口口③ |③---|
口①②口 |④---|
66
①④⑤② |①---|
⑥①②③ |②---|
口②①口 |③---④-|
②口口① |⑤---⑥-|
67
①口口② |①---|
口口口口 |②---|
④口口③ |③---|
口①②口 |④---|
68
①口口② |①---|
③①②口 |②---|
口②①口 |③---|
②口口① |----|
69
口②③口 |①---|
④口口① |②---|
④口口① |③---|
口②③口 |④---|
70
①④⑤② |①---|
口①②③ |②---|
⑥②①口 |③---④-|
②口口① |⑤---⑥-|
71
口口口口 |----①-|
④口口口 |②---③-|
口②口③ |④---|
⑤口①⑤ |⑤---|
72
口①口① |①---|
口①①① |----②-|
②口①② |----③-|
口④③口 |④---|
73
口口口口 |----|
口口口口 |①---|
口口口口 |②---|
②口③① |③---|
74
口口口口 |①---|
①口口② |----|
口②①口 |②---|
口口口口 |----|
75
①③③② |①---|
口②①口 |----|
③口口③ |②---|
口口口口 |----③-|
76
口口口口 |----|
口口口口 |----|
口口口口 |①---|
①口口① |----|
77
口⑧口口 |①-②-③-|
⑧⑥⑤④ |④-⑤-⑥-|
①②③⑦ |⑦---|
口口⑦口 |⑧---|
78
口口口① |①---|
口口口口 |----|
口口口口 |----|
口口口口 |----|
79
⑦⑥⑤④ |①---②-|
⑪⑩⑨⑧ |----③-|
⑮⑭⑬⑫ |④⑤⑥⑦⑧⑨|
②③口① |⑩⑪⑫⑬⑭⑮|
80
口口口③ |①---|
口口口口 |②---|
口口口口 |③---④-|
②④⑤① |⑤---|
81
①口口③ |①---|
口④⑤口 |②---|
口口口口 |③---④-|
口口口② |⑤---|
82
口口口④ |①---②-|
口⑤⑥口 |③---|
口③②口 |④---⑤-|
①口口口 |⑥---|
83
②口口口 |①---|
口口口口 |②---|
口④⑤口 |③---④-|
①口口③ |⑤---|
84
口③②口 |①---|
③⑤④② |②---|
①口口口 |③---④-|
口①口口 |⑤---|
85
口口③口 |①---|
口口口③ |②---|
②④⑤① |③---④-|
口②①口 |⑤---|
86
口①口口 |①---|
①④口③ |②---|
口口口② |③---④-|
口口②口 |----|
87
口口④口 |①---|
口⑤⑥④ |②---③-|
①③口② |④---⑤-|
口①②口 |⑥---|
88
①①口口 |①---|
口口口口 |②---|
口口⑤④ |③---④-|
③③②② |⑤---|
89
①①②② |①---|
④口⑤⑥ |②---③-|
③口口口 |④---⑤-|
口口口口 |⑥---|
90
①①口口 |①---|
口口口口 |②---|
口口⑤④ |③---④-|
③③②② |⑤---|
91
①①②② |①---|
⑤口④③ |②---③-|
⑥口口口 |④---⑤-|
口口口口 |⑥---|
92
①③②口 |①---|
口⑤④口 |②---|
口口口口 |③---④-|
口②③① |⑤---|
93
②口口① |①---|
口⑥⑤口 |②---③-|
口④③口 |④---⑤-|
①口口② |⑥---|
94
口②①口 |①---|
口口口口 |②---|
口④口③ |③---④-|
口①②口 |----|
95
口口口① |①---|
②口口② |②---|
口口口口 |③---|
①④③口 |④---|
96
①①①口 |①---|
口①③口 |②---|
口①②③ |③---|
口④④② |④---|
97
②口①① |①---|
③口口① |②---|
④口口口 |③---|
①口口口 |④---|
98
口口口口 |①---|
④①②口 |②---|
口③口口 |③---|
口口④口 |④---|
99
口口①① |①---|
口③②① |②---|
口口口④ |③---|
①口口口 |④---|
100
②口口口 |①---|
①③③口 |②---|
①①③口 |③---|
口①①④ |④---|
101
口口①① |①---|
②④口① |②---|
口口口口 |③---|
①口③口 |④---|
102
④口口① |①---|
③口③① |②---|
②③口① |③---|
口③口① |④---|
103
口口①① |①---②-|
④②⑤① |③---|
④口③⑤ |④---|
①口口口 |⑤---|
104
口①口口 |①---|
口②口口 |②---|
口③口口 |③---|
口④口口 |④---|
105
口③④① |①---|
口口口② |----|
⑤口口口 |②---③-|
口口口口 |④---⑤-|
106
口口口口 |----①-|
④口口口 |②---③-|
口②口③ |④---|
⑤口①⑤ |⑤---|
107
口①口① |①---|
口①①① |----②-|
②口①② |----③-|
口④③口 |④---|
108
口口口口 |----|
口口口口 |①---|
口口口口 |②---|
②口③① |③---|
109
口口④① |①---②-|
②③④① |③---|
口口口口 |④---⑤-|
⑤⑥口口 |⑥---|
110
②③口口 |①---②-|
口口口⑦ |③---|
⑤⑥④① |④---⑤-|
口口④① |⑥---⑦-|
111
④④④④ |①-②-③-|
③②①口 |----|
口口口口 |④---|
口口口口 |----|
112
口口口口 |①-②-③-|
口⑦⑦口 |④-⑤-⑥-|
④⑤⑥口 |⑦---|
口③②① |----|
113
口口①① |①---|
口口口① |----|
口口口口 |----|
①口口口 |----|
114
口口口口 |①---|
①口①口 |----|
①①①口 |----|
口①口口 |----|

不確定度: 0

最終更新:2016年04月12日 02:54