Spanish Snowy Dance
Mutsuhiko Izumi

EXTREME

Level: 9
BPM: 180
Notes: 611

1
口口口口 |----|
口口口口 |----|
口口口口 |----|
口口口口 |----|
2
口口①① |①---|
⑤②口口 |②③④-|
口口③⑥ |--⑤⑥|
⑦④口口 |⑦---|
3
口口①② |①-②-|
④③口口 |--③-|
口口⑤⑥ |④---|
口口口口 |⑤-⑥-|
4
①①口口 |①---|
口口②⑤ |②③④-|
⑥③口口 |--⑤⑥|
口口④⑦ |⑦---|
5
①③②口 |①-②-③-|
口口口口 |④-⑤-⑥-|
口⑤⑥④
口口口口

口口⑪口
⑦⑨⑧口
口口口口 |⑦-⑧-⑨-|
口口口⑩ |⑩---⑪-|
6
口①口口 |①---|
②③④口 |----|
口口口口 |----|
口口口口 |②-③-④-|
7
口口口① |①---|
口④③② |----|
口口口口 |----|
口口口口 |②-③-④-|
8
①口口口 |①---|
②③④口 |----|
口口口口 |----|
口口口口 |②-③-④-|
9
口口口① |①---|
口口口口 |----|
口④口口 |--②-|
口②③口 |③-④-|
10
口口②③ |①---|
④口口口 |--②-|
⑤口①口 |③---④-|
口口口口 |--⑤---|
11
①口口口 |①---|
口口口口 |----|
口口④口 |--②-|
口③②口 |③-④-|
12
③②口口 |①---|
口口口④ |--②-|
口①口⑤ |③---④-|
口口口口 |--⑤---|
13
口口口口 |①---|
口口口口 |----|
口④口口 |----|
口②③① |②-③-④-|
14
口口口② |①---|
口口④口 |②-③-|
口口①口 |--④-|
口口⑤③ |⑤---|
15
口口口口 |①---|
①①⑤口 |--②-|
口④③口 |--③-|
②②口口 |④-⑤-|
16
①口口口 |①---|
①②③口 |----|
口④口口 |--②-|
口口口口 |③-④-|
17
口口口① |①---|
口口口① |--②-|
口⑤口口 |--③-|
②③④② |④-⑤-|
18
口口②③ |①---|
④口口口 |--②-|
⑤口①口 |③---④-|
口口口口 |--⑤---|
19
①口口口 |①---|
口口口口 |----|
口口④口 |--②-|
口③②口 |③-④-|
20
③②口口 |①---|
口口口④ |--②-|
口①口⑤ |③---④-|
口口口口 |--⑤---|
21
口口口口 |①---|
口口口口 |----|
口④口口 |----|
口②③① |②-③-④-|
22
口口口② |①---|
口口④口 |②-③-|
口口①口 |--④-|
口口⑤③ |⑤---|
23
口口口口 |①---|
①①⑤口 |--②-|
口④③口 |--③-|
②②口口 |④-⑤-|
24
①口口口 |①---|
①②③口 |----|
口④口口 |--②-|
口口口口 |③-④-|
25
口②②① |①---|
口口口① |--②-|
口⑥⑤口 |----|
口④③口 |③④⑤⑥|
26
口口口① |①-②③|
④③②口 |④-⑤-|
⑥口⑪⑤ |⑥-⑦-|
⑧⑨⑩⑦ |⑧⑨⑩⑪|
27
①口口口 |①-②③|
口②③④ |④-⑤-|
⑤⑪口⑥ |⑥-⑦-|
⑦⑩⑨⑧ |⑧⑨⑩⑪|
28
口口口① |①-②③|
④③②口 |④-⑤-|
⑥口⑪⑤ |⑥-⑦-|
⑧⑨⑩⑦ |⑧⑨⑩⑪|
29
①口口口 |①-②③|
口②③④ |④-⑤-|
⑤口口口
口口口口

⑪⑩⑨⑧
口口口口
口口口⑥ |⑥-⑦-|
⑦口口口 |⑧⑨⑩⑪|
30
⑧⑨⑩⑪ |①-②③|
②③④口 |④-⑤-|
口口①⑥ |⑥-⑦-|
⑦⑤口口 |⑧⑨⑩⑪|
31
⑪⑩⑨⑧ |①-②③|
口④③② |④-⑤-|
⑥①口口 |⑥-⑦-|
口口⑤⑦ |⑧⑨⑩⑪|
32
⑧⑨⑩⑪ |①-②③|
②③④口 |④-⑤-|
口口①⑥ |⑥-⑦-|
⑦⑤口口 |⑧⑨⑩⑪|
33
口口口口 |①--②|
口⑤⑥② |-③④⑤|
①③④⑦ |⑥---|
口口口口 |--⑦-|
34
口③②口 |①---②-|
①⑦⑧口 |--③---|
口⑨⑥口 |④-⑤-⑥-|
口⑤④口 |⑦-⑧-⑨-|
35
口口③① |①-②-|
口口口② |----|
口口口口 |----|
口口口口 |--③-|
36
口①口② |①-②-|
③⑤④口 |--③-|
口⑨⑥口 |④-⑤-⑥-|
口⑦⑧口 |⑦-⑧-⑨-|
37
口口①口 |①---|
口④口口 |----|
口口③口 |----|
口②口口 |②-③-④-|
38
④口口① |①-②-③-|
口⑫⑪⑤ |④-⑤-⑥-|
⑥⑩⑨③ |⑦-⑧-⑨-|
②⑧⑦口 |⑩-⑪-⑫-|
39
④口口③ |①-②-③-|
②⑫⑪⑤ |④-⑤-⑥-|
口⑩⑨口 |⑦-⑧-⑨-|
⑥⑧⑦① |⑩-⑪-⑫-|
40
④口①⑨ |①-②-③-|
⑧口口⑤ |④-⑤-⑥-|
②⑩口⑦ |⑦-⑧-⑨-|
⑫⑥⑪③ |⑩-⑪-⑫-|
41
⑥②口口 |①-②-③-|
口口①⑤ |④-⑤-⑥-|
④口口口
口口口③

口口⑦口
⑫⑧⑪口
口⑩口口 |⑦-⑧-⑨-|
口口⑨口 |⑩-⑪-⑫-|
42
②③口① |①---|
口口⑤④ |--②-|
⑥口口口 |③-④-|
口口口口 |⑤-⑥-|
43
口⑤④口 |①-②-|
口口口口 |③---|
口①口口 |----|
口口③② |④-⑤-|
44
④口口⑨ |①-②-③-|
⑩⑧⑤③ |④-⑤-⑥-|
⑥②⑪⑦ |⑦-⑧-⑨-|
⑫口口① |⑩-⑪-⑫-|
45
口口口口 |①---|
口口口口 |----|
口口④口 |----|
口③②① |②-③-④-|
46
口口④口 |①---|
口③②口 |----|
口①口口 |----|
口口口口 |②-③-④-|
47
口①口口 |①---|
口口口口 |----|
口口口口 |②---|
口口口② |----|
48
口口口口 |①---|
口口口口 |----|
口②①口 |②---|
口口口口 |----|
49
口⑧⑨口 |①-②-|
口⑩⑦口 |③-④-|
④⑥⑤② |⑤-⑥-⑦-|
③口口① |⑧-⑨-⑩-|
50
口口口① |①---|
口⑥口① |--②-|
②③⑤口 |③---|
口④③② |④-⑤-⑥-|
51
⑥口口③ |①-②-③-|
②⑫⑨⑤ |④-⑤-⑥-|
④⑧⑪① |⑦-⑧-⑨-|
口⑩⑦口 |⑩-⑪-⑫-|
52
②②①① |①---|
⑤口口口 |--②③|
④④口⑥ |④---|
⑦口③③ |⑤-⑥-⑦-|
53
⑩④①⑦ |①-②-③-|
⑧②⑤⑪ |④-⑤-⑥-|
⑫⑥③⑨ |⑦-⑧-⑨-|
口口口口 |⑩-⑪-⑫-|
54
口⑥②③ |①---|
③②⑤口 |--②-|
口④口口 |③---|
口口①① |④-⑤-⑥-|
55
口⑫⑨口 |①-②-③-|
⑥⑧⑪③ |④-⑤-⑥-|
②⑩⑦⑤ |⑦-⑧-⑨-|
④口口① |⑩-⑪-⑫-|
56
⑦口口④ |①-②-③-|
⑫⑧口⑤ |④-⑤-⑥-|
⑪口⑨⑥ |⑦-⑧-⑨-|
⑩③②① |⑩-⑪-⑫-|
57
口①①口 |①---|
口口口口 |----|
口口口口 |----|
②③④⑤ |②③④⑤|
58
⑦⑥⑤④ |①---|
口口口口 |②---|
①②③口 |③---|
口口口口 |④⑤⑥⑦|
59
口⑤④口 |①---|
口③②① |②---|
口口口口 |③---|
口口口口 |④-⑤-|
60
口口口口 |①--②|
⑥口口① |--③-|
⑤口口② |④--⑤|
④口口③ |--⑥-|
61
口口③口 |①②③-|
口②①口 |----|
口口口口 |----|
口口口口 |----|
62
口口口① |①-②③|
②③④⑨ |④-⑤-|
⑤口口⑨ |⑥⑦⑧-|
口⑧⑦⑥ |⑨---|
63
口口口① |①-②③|
②③④⑨ |④-⑤-|
⑤口口⑨ |⑥⑦⑧-|
口⑧⑦⑥ |⑨---|
64
口①①口 |①---|
④口口③ |--②-|
④口口③ |--③-|
②口口② |④---|
65
⑫口口⑨ |①-②-③-|
⑧⑥③⑪ |④-⑤-⑥-|
⑩②⑤⑦ |⑦-⑧-⑨-|
口④①口 |⑩-⑪-⑫-|
66
口①①口 |①---|
②③④口 |--②③|
口⑦口口 |④-⑤-|
口⑤⑥口 |⑥-⑦-|
67
口口②③ |①---|
④口口口 |--②-|
⑤口①口 |③---④-|
口口口口 |--⑤---|
68
①口口口 |①---|
口口口口 |----|
口口④口 |--②-|
口③②口 |③-④-|
69
③②口口 |①---|
口口口④ |--②-|
口①口⑤ |③---④-|
口口口口 |--⑤---|
70
口口口口 |①---|
口口口口 |----|
口④口口 |----|
口②③① |②-③-④-|
71
口口口② |①---|
口口④口 |②-③-|
口口①口 |--④-|
口口⑤③ |⑤---|
72
口口口口 |①---|
①①⑤口 |--②-|
口④③口 |--③-|
②②口口 |④-⑤-|
73
①口口口 |①---|
①②③口 |----|
口④口口 |--②-|
口口口口 |③-④-|
74
口口口① |①---|
口口口① |--②-|
口⑤口口 |--③-|
②③④② |④-⑤-|
75
口口②③ |①---|
④口口口 |--②-|
⑤口①口 |③---④-|
口口口口 |--⑤---|
76
①口口口 |①---|
口口口口 |----|
口口④口 |--②-|
口③②口 |③-④-|
77
③②口口 |①---|
口口口④ |--②-|
口①口⑤ |③---④-|
口口口口 |--⑤---|
78
口口口口 |①---|
口⑦④口 |----|
口③⑥口 |②-③-④-|
口⑤②① |⑤-⑥-⑦-|
79
口口①② |①---|
口口④口 |②-③-|
口口口口 |--④-|
口口⑤③ |⑤---|
80
口口口口 |①---|
①①⑤口 |--②-|
口④③口 |--③-|
②②口口 |④-⑤-|
81
①口口口 |①---|
①②③口 |----|
口④口口 |--②-|
口口口口 |③-④-|
82
口②②① |①---|
口口口① |--②-|
口口口口 |----|
口口口口 |----|
83
口②②口 |①---|
②口口② |--②-|
①口口① |----|
口①①口 |----|
84
②②②② |①---|
口口口口 |--②-|
口口口口 |----|
①①①① |----|
85
②②②② |①---|
②口口② |--②-|
①口口① |----|
①①①① |----|
86
口口口口 |----|
口口口口 |----|
口口口口 |----|
口口口口 |----|
87
②口口① |----|
口①②口 |----|
口口口③ |--①-|
口③口口 |②-③-|
88
口口④口 |①---|
口③口口 |--②③|
①口②口 |④---|
口口①口 |----|

不確定度: 0

最終更新:2015年03月23日 00:51