Too Late Snow
movies (moimoi × Xceon × Dai.)

EXTREME

Level: 9
BPM: 138
Notes: 803

1
口口口口 |----|
口口口口 |----|
口口②口 |----|
口①口口 |①-②-|
2
口口③② |①-②-|
口①⑤⑤ |③-④-|
⑥⑧口口 |⑤-⑥-|
④口⑦⑦ |⑦-⑧-|
3
口口口① |①-②-|
②口口口 |③-④-|
口⑦⑤③ |⑤---|
④口⑥口 |⑥-⑦-|
4
②③①口 |①-②-|
⑤⑤口⑥ |③-④-|
口口⑧口 |⑤-⑥-|
⑦⑦口④ |⑦-⑧-|
5
①①口② |①-②-|
⑦⑦⑥⑥ |③-④-|
③③口④ |⑤---|
⑤⑤口口 |⑥-⑦-|
6
口②③口 |①-②③|
口口口口 |④⑤⑥⑦|
④⑤⑥⑦
口口①①

⑨口口⑩
口⑧口口
口口口口 |⑧-⑨⑩|
⑪⑫⑬⑭ |⑪⑫⑬⑭|
7
⑨②③⑩ |①-②③|
①⑧口口 |④⑤⑥⑦|
④⑤⑥⑦ |⑧-⑨⑩|
⑪⑫⑬⑭ |⑪⑫⑬⑭|
8
口①①口 |①-②③|
②口口③ |④⑤⑥⑦|
④⑤⑥⑦
口口口口

口⑨⑩口
口⑧⑧口
口口口口 |⑧-⑨⑩|
⑪⑫⑬⑭ |⑪⑫⑬⑭|
9
①③③② |①---|
①④④② |②---|
③④④③ |③---|
口口口口 |④---|
10
口⑩口口 |①---|
⑦③⑥⑨ |②-③④|
口⑧口口 |⑤⑥-⑦|
①⑤④② |-⑧⑨⑩|
11
口口口① |①-②-|
口口⑤口 |③④-⑤|
口口②口
③④口口

口口⑨⑧
⑩口口口
口⑥口⑪ |⑥⑦-⑧|
口口⑦口 |-⑨⑩⑪|
12
口⑩口口 |①---|
⑦③⑥⑨ |②-③④|
口⑧口口 |⑤⑥-⑦|
①⑤④② |-⑧⑨⑩|
13
口口口① |①-②-|
口口⑤口 |③④-⑤|
口口②口
③④口口

口口口⑧
口口口⑩
⑨⑥口口 |⑥⑦-⑧|
口口⑦口 |⑨-⑩-|
14
①①③口 |①---|
②口口口 |②-③-|
口口口④ |④---|
⑤⑤④口 |⑤---|
15
口①②口 |①-②-|
①③④② |③-④-|
③口口④
口口口口

口口口口
口⑦口口
口⑤口口 |⑤---|
⑤口⑥口 |⑥-⑦-|
16
口口①③ |①---|
②口⑤① |②-③-|
④⑤口口 |④---|
⑤④口口 |⑤---|
17
口口①① |①---|
②②口① |②---|
口口②口
口口口口

口口口口
口口口口
口口⑤③ |③---|
④③③口 |④-⑤-|
18
①①口③ |①---|
②口口口 |②-③-|
口口口⑤ |④---|
④④⑤口 |⑤---|
19
口①②口 |①-②-|
①③④② |③-④-|
③口口④
口口口口

口口口口
口⑦口口
口⑤口口 |⑤---|
⑤口⑥口 |⑥-⑦-|
20
口口①口 |①---|
口④②① |--②-|
③口口口 |③---|
口③口口 |④---|
21
③②②③ |①---|
①口口① |②---|
②③③② |③---|
①口口① |----|
22
口⑥⑦口 |①-②-|
⑤口口⑧ |③-④-|
①口口④ |⑤-⑥-|
口②③口 |⑦-⑧-|
23
④口口口 |①---|
口口口口 |②---|
口③②口 |③---|
①②③④ |④---|
24
口口③口 |①---|
口口①口 |②-③-|
口口口口
①②口口

口口口口
口④⑦口
口⑥⑤口 |④-⑤-|
口口④⑥ |⑥-⑦-|
25
口口③① |①---|
口④⑤口 |②-③-|
口口口口 |④---|
①②④⑤ |⑤---|
26
口口口口 |①---|
口口口口 |②---|
口①口口 |③---|
①②③④ |④---|
27
④口口口 |①---|
口口口口 |②---|
口③②口 |③---|
①②③④ |④---|
28
口口③口 |①---|
口口①口 |②-③-|
口口口口
①②口口

口口口口
口④⑦口
口⑥⑤口 |④-⑤-|
口口④⑥ |⑥-⑦-|
29
口口③① |①---|
⑥④⑧⑦ |②-③-|
口口⑤口 |④-⑤-|
①②④⑥ |⑥-⑦⑧|
30
①②③④ |①②③④|
⑨⑩⑪⑫ |⑤⑥⑦⑧|
⑤⑥⑦⑧ |⑨⑩⑪⑫|
⑬⑭⑮⑯ |⑬⑭⑮⑯|
31
①口③③ |①---|
②口口口 |②-③-|
①口口口
口口口口

⑦⑦口口
口⑤⑤口
口口④④ |④--⑤|
口口⑥口 |⑥-⑦-|
32
口口口口 |①---|
③③口① |②-③-|
口口口②
口口口①

口⑥口口
口口⑦⑦
口⑤⑤口 |④--⑤|
④④口口 |⑥-⑦-|
33
①口③③ |①---|
②口口口 |②-③-|
①口口口
口口口口

⑦⑦口口
口⑤⑤口
口口④④ |④--⑤|
口口⑥口 |⑥-⑦-|
34
口④③② |①---|
口口口口 |②---|
①①口口 |③---|
口口口口 |④---|
35
口口口口 |①---|
③③口① |②-③-|
口口口②
口口口①

口⑥口口
口口⑦⑦
口⑤⑤口 |④--⑤|
④④口口 |⑥-⑦-|
36
①口③③ |①---|
②口口口 |②-③-|
①口口口
口口口口

⑦⑦口口
口⑤⑤口
口口④④ |④--⑤|
口口⑥口 |⑥-⑦-|
37
⑤⑥口⑤ |①--②|
②口口① |--③-|
④⑥口③ |④--⑤|
②④③① |--⑥-|
38
口口①口 |①-②-|
①②③④ |③-④-|
口口①口
口口口口

⑤口⑥口
口口口口
口口口口 |⑤-⑥-|
口⑦口⑧ |⑦-⑧-|
39
口口口口 |①---|
口①口① |----|
①口①口
口口口口

口口口口
②③②④
③②④② |②---|
口口口口 |③-④-|
40
①口①③ |①---|
②口③口 |②-③-|
④口口④ |④---|
⑤⑤④⑤ |⑤---|
41
①口①口 |①-②-|
③②口口 |③-④-|
口口口③
口④口口

口口口口
口⑦口口
⑤口口口 |⑤---|
⑥口⑤⑥ |⑥-⑦-|
42
①口①③ |①---|
②口⑤① |②-③-|
④⑤口④ |④---|
⑤口④口 |⑤---|
43
①口①口 |①---|
②②口① |②---|
口口②口
口口口口

口口口口
口⑤口口
③口口③ |③---|
④口③④ |④-⑤-|
44
①口①③ |①---|
②口③口 |②-③-|
④口口④ |④---|
⑤⑤④⑤ |⑤---|
45
①口①口 |①-②-|
③②口口 |③-④-|
口口口③
口④口口

口口口口
口⑦口口
⑤口口口 |⑤---|
⑥口⑤⑥ |⑥-⑦-|
46
①口①口 |①---|
口④②① |--②-|
③口口③ |③---|
口③③口 |④---|
47
③②②③ |①---|
①口口① |②---|
②③③② |③---|
①口口① |----|
48
口⑩口口 |①---|
⑦③⑥⑨ |②-③④|
口⑧口口 |⑤⑥-⑦|
①⑤④② |-⑧⑨⑩|
49
口口口① |①-②-|
口口⑤口 |③④-⑤|
口口②口
③④口口

口口⑨⑧
⑩口口口
口⑥口⑪ |⑥⑦-⑧|
口口⑦口 |-⑨⑩⑪|
50
口⑩口口 |①---|
⑦③⑥⑨ |②-③④|
口⑧口口 |⑤⑥-⑦|
①⑤④② |-⑧⑨⑩|
51
口口口① |①-②-|
口口⑤口 |③④-⑤|
口口②口
③④口口

⑨口口⑧
口⑩口口
口⑥⑪口 |⑥⑦-⑧|
口口⑦⑫ |⑨⑩⑪⑫|
52
②①①口 |①---|
口口口③ |----|
口口口口 |----|
口口口口 |②-③-|
53
口②口口 |①-②③|
口口③口 |④⑤⑥⑦|
④①⑥口
口⑤口⑦

⑧⑫口⑭
⑪口⑬口
口⑨口口 |⑧-⑨⑩|
口口⑩口 |⑪⑫⑬⑭|
54
口口③口 |①-②③|
口②口口 |④⑤⑥⑦|
口⑤口⑦
④①⑥口

⑧口口⑨
口口口口
⑩口⑫口 |⑧-⑨-|
口⑪口⑬ |⑩⑪⑫⑬|
55
④①⑥口 |①-②③|
口⑤口⑦ |④⑤⑥⑦|
口②口口
口口③口

口⑨口口
口口⑩口
⑪口⑬口 |⑧-⑨⑩|
⑧⑫口⑭ |⑪⑫⑬⑭|
56
①口③口 |①②③④|
口②口④ |⑤⑥⑦⑧|
口⑥口⑧
⑤口⑦口

口⑨口口
口⑫口口
⑩口口口 |⑨-⑩-|
口口口⑪ |⑪-⑫-|
57
①口①④ |①-②-|
③口④口 |③-④-|
口口口口
口②口口

口口口口
口口口口
⑤⑧⑥⑤ |⑤-⑥-|
⑦⑦⑤⑦ |⑦-⑧-|
58
①口①口 |①-②-|
③②口口 |③-④-|
口口口③
口④口口

口口口口
口⑧口口
⑤⑥口口 |⑤-⑥-|
⑦口⑤⑦ |⑦-⑧-|
59
①②①口 |①-②-|
③口④① |③-④-|
口口口口
口口口口

⑧口口⑦
口⑥口口
⑤⑦⑤口 |⑤-⑥-|
⑦⑤口⑤ |⑦-⑧-|
60
口①③口 |①-②-|
①⑤⑤③ |③-④-|
③⑤⑤① |⑤---|
④③①② |----|
61
⑨⑬⑧④ |①②③④|
③⑦⑭⑩ |⑤⑥⑦⑧|
⑪⑮⑥② |⑨⑩⑪⑫|
①⑤⑯⑫ |⑬⑭⑮⑯|
62
口口口口 |----|
口①①口 |---①|
口口口口
①口口①
63
①②③① |----|
②④⑤③ |①-②-|
⑥①①⑦ |③-④⑤|
⑧⑥口⑨ |⑥⑦⑧⑨|
64
口①②④ |①-②③|
①⑤⑥② |④⑤⑥⑦|
⑦③④口
口口⑥口

⑪⑨⑫口
⑪口口⑭
口⑬口⑧ |⑧-⑨⑩|
⑬口口⑩ |⑪⑫⑬⑭|
65
口⑤口② |①-②③|
⑦①④口 |④⑤⑥⑦|
③口口④
口①⑥⑥

⑬口⑧⑫
口⑨⑭⑩
口口⑧口 |⑧-⑨⑩|
⑪⑪口口 |⑪⑫⑬⑭|
66
口③②口 |①-②③|
口⑤口口 |④-⑤⑥|
①①⑥④
口口④口

⑫口⑨⑨
⑦口⑪口
⑩⑧口⑪ |⑦-⑧-|
⑦口口口 |⑨⑩⑪⑫|
67
口⑥口⑦ |①-②③|
⑥②口① |④⑤⑥⑦|
口口③口
④口①⑤

口口⑪口
口⑫⑨⑪
⑧⑩⑬口 |⑧-⑨⑩|
⑭⑧口口 |⑪⑫⑬⑭|
68
⑥②口③ |①-②③|
②口⑤⑦ |④⑤⑥⑦|
④⑥口①
口④①口

口口⑪口
⑫⑧口口
⑭口⑨⑪ |⑧-⑨⑩|
⑩口⑬⑬ |⑪⑫⑬⑭|
69
⑥②⑦① |①-②③|
口⑥①③ |④⑤⑥⑦|
口口⑤口
口④口口

口⑫口⑪
⑩口⑪⑬
⑭⑧口⑨ |⑧-⑨⑩|
⑧口口口 |⑪⑫⑬⑭|
70
④口③⑦ |①-②③|
口④⑤口 |④-⑤⑥|
口⑥①⑦ |⑦---|
②口口① |----|
71
①①口口 |①---|
口①①口 |----|
口口①口 |----|
口口口口 |----|

不確定度: 0

最終更新:2015年05月24日 19:13