ドリームキャッチャー
アイくるガールズ

BASIC

Level: 2
BPM: 208
Notes: 146

1
口口口口 |----|
口口口口 |----|
口口口口 |----|
口口口口 |----|
2
口口口口 |①---|
①①②② |----|
口口口口 |----|
口口口口 |②---|
3
口口口口 |----|
口口口口 |----|
口口口口 |----|
口口口口 |----|
4
口口口口 |①---|
口口口口 |----|
口①①口 |----|
口口口口 |----|
5
口口口口 |①---|
口口口口 |----|
口口口口 |----|
口①①口 |----|
6
口口口口 |①---|
②口口口 |----|
①口口口 |②---|
口口口口 |----|
7
①口口口 |①---|
口口口口 |----|
口口口口 |----|
口口口口 |----|
8
口口口口 |①---|
口口口口 |----|
口①①口 |----|
口口口口 |----|
9
口口口口 |①---|
口口口口 |----|
口口口口 |----|
口①①口 |----|
10
口口口口 |①---|
口口口口 |----|
口口口① |----|
口口口口 |----|
11
口口口① |①---|
口口口口 |----|
口口口口 |----|
口口口口 |----|
12
口口口口 |①---|
口①口口 |----|
口口口口 |----|
口口口口 |----|
13
口口口口 |①---|
口口①口 |----|
口口口口 |----|
口口口口 |----|
14
口口口口 |①---|
口口口口 |----|
口①口口 |----|
口口口口 |----|
15
口口口口 |①---|
口口口口 |----|
口口①口 |----|
口口口口 |----|
16
口口口口 |①---|
口口口口 |----|
口口口口 |----|
口①口口 |----|
17
口口口口 |①---|
口口口口 |----|
口口口口 |----|
口口①口 |----|
18
口口口口 |①---|
口口口口 |----|
①口口② |②---|
口口口口 |----|
19
口口口口 |①---|
①口口② |----|
口口口口 |②---|
口口口口 |----|
20
口口口口 |①---|
口口口口 |----|
口①①口 |----|
口口口口 |----|
21
口口口口 |①---|
口口口口 |----|
口口口口 |----|
口①①口 |----|
22
口口口口 |①---|
②口口口 |----|
①口口口 |②---|
口口口口 |----|
23
①②口口 |①---|
口口口口 |----|
口口口口 |②---|
口口口口 |----|
24
口口口口 |①---|
口口①口 |----|
口口口口 |----|
口口口口 |----|
25
口口口口 |①---|
口口口口 |----|
口①口口 |----|
口口口口 |----|
26
口口口口 |①---|
口口口口 |----|
口口②口 |②---|
口口①口 |----|
27
口口口口 |①---|
口口①口 |----|
口口口口 |----|
口口口口 |----|
28
口口口口 |①---|
口口口口 |----|
②②口口 |②---|
①①口口 |----|
29
②②口口 |①---|
①①口口 |----|
口口口口 |②---|
口口口口 |----|
30
口口口口 |①---|
口口口口 |----|
口口①口 |----|
口口口口 |----|
31
口口口口 |①---|
口①口口 |----|
口口口口 |----|
口口口口 |----|
32
口口口口 |①---|
口口口口 |----|
口①①口 |----|
口口口口 |----|
33
口口口口 |①---|
①口口① |----|
口口口口 |----|
口口口口 |----|
34
口口口口 |①---|
口口口口 |----|
①口口② |②---|
口口口口 |----|
35
口口口口 |①---|
口②②口 |----|
口①①口 |②---|
口口口口 |----|
36
口①①口 |①---|
口口口口 |----|
口口口口 |----|
口口口口 |----|
37
口口口口 |----|
口口口口 |----|
口口口口 |----|
口口口口 |----|
38
口口口口 |①---|
口口口口 |----|
口口口口 |----|
①口口① |----|
39
口口口口 |①---|
①口口① |----|
口口口口 |----|
口口口口 |----|
40
口口口口 |①---|
口口口口 |----|
口①口口 |----|
口口口口 |----|
41
口口口口 |①---|
口口口口 |----|
口口①口 |----|
口口口口 |----|
42
口口口口 |①---|
口口口① |----|
口口口口 |----|
口口口口 |----|
43
口口口口 |①---|
口①口口 |----|
口口口口 |----|
口口口口 |----|
44
口口口口 |①---|
口口口口 |----|
①口口口 |----|
口口口口 |----|
45
口口口口 |①---|
口口口口 |----|
口口口口 |----|
口①口口 |----|
46
口口口口 |①---|
口口口口 |----|
口口口口 |----|
口口①口 |----|
47
口口口口 |①---|
口①②口 |----|
口口口口 |②---|
口口口口 |----|
48
①②口口 |①---|
口口口口 |----|
口口口口 |②---|
口口口口 |----|
49
口口口口 |①---|
口①②口 |----|
口口口口 |②---|
口口口口 |----|
50
口口口口 |①---|
口口口口 |----|
口口①② |②---|
口口口口 |----|
51
口口口口 |①---|
口口口口 |----|
口口口口 |②---|
口口②① |----|
52
口口口口 |①---|
口口口口 |----|
口口口口 |②---|
②①口口 |----|
53
口口口口 |①---|
口口口口 |----|
口①②口 |②---|
口口口口 |----|
54
口口口口 |①---|
口口①② |----|
口口口口 |②---|
口口口口 |----|
55
口口②① |①---|
口口口口 |----|
口口口口 |②---|
口口口口 |----|
56
口①口口 |①---|
口口口口 |----|
口口口口 |----|
口口口口 |----|
57
口口口口 |----|
口口口口 |----|
口口口口 |----|
口口口口 |----|
58
口口口口 |①---|
口口口口 |----|
口口口口 |②---|
口①②口 |----|
59
口口口口 |①---|
口口口口 |----|
口①②口 |②---|
口口口口 |----|
60
口口口口 |①---|
口①口② |----|
口口口口 |②---|
口口口口 |----|
61
口口口口 |①---|
口口口口 |----|
口口口① |②---|
口口口② |----|
62
口口口口 |①---|
口口口口 |----|
口口口口 |②---|
口①②口 |----|
63
口口口口 |①---|
口口口口 |----|
口①口口 |----|
口口口口 |----|
64
口口口口 |①---|
①口口口 |----|
②口口口 |②---|
口口口口 |----|
65
口口口口 |①---|
口口口口 |----|
口口口口 |----|
①口口口 |----|
66
口口口口 |①---|
口口口口 |----|
口口②口 |②---|
口口①口 |----|
67
口口口口 |①---|
口口①口 |----|
口口口口 |----|
口口口口 |----|
68
口①口口 |①---|
口②口口 |----|
口口口口 |②---|
口口口口 |----|
69
口口口口 |①---|
口口口口 |----|
口①口口 |----|
口口口口 |----|
70
口口口口 |①---|
口口口口 |----|
口口口口 |----|
①口口口 |----|
71
口口口口 |①---|
口口口口 |----|
口口口口 |----|
口①口口 |----|
72
口口口口 |①---|
口口口口 |----|
口口口口 |----|
口口①口 |----|
73
口口口口 |①---|
口口口口 |----|
口口口口 |----|
口口口① |----|
74
口口口口 |①---|
口口口口 |----|
口口口口 |②---|
口①②口 |----|
75
口口口口 |①---|
口口口口 |----|
口①②口 |②---|
口口口口 |----|
76
口口口口 |①---|
口①口② |----|
口口口口 |②---|
口口口口 |----|
77
口口口口 |①---|
口口口口 |----|
口口口① |②---|
口口口② |----|
78
口口口口 |①---|
口口口口 |----|
口口口口 |②---|
口①②口 |----|
79
口口口口 |①---|
口口口口 |----|
口①口口 |----|
口口口口 |----|
80
口口口口 |①---|
①口口口 |----|
②口口口 |②---|
口口口口 |----|
81
口口口口 |①---|
口口口口 |----|
口口口口 |----|
①口口口 |----|
82
口口口口 |①---|
口口口口 |----|
口口②口 |②---|
口口①口 |----|
83
口口②口 |①---|
口口①口 |----|
口口口口 |②---|
口口口口 |----|
84
口①口口 |①---|
口②口口 |----|
口口口口 |②---|
口口口口 |----|
85
口口口口 |①---|
口口口口 |----|
口①口口 |----|
口口口口 |----|
86
口口口口 |①---|
口口口口 |----|
口口口口 |----|
①口口口 |----|
87
口口口口 |①---|
口口口口 |----|
口口口口 |----|
口口口① |----|
88
口口口口 |①---|
口口口口 |----|
①②口口 |②---|
口口口口 |----|
89
口口口口 |①---|
口口口口 |----|
口口①② |②---|
口口口口 |----|
90
口口口口 |①---|
口①①口 |----|
口口口口 |----|
口口口口 |----|
91
口口口口 |----|
口口口口 |----|
口口口口 |----|
口口口口 |----|
92
口口口口 |----|
口口口口 |----|
口口口口 |----|
口口口口 |----|
93
口口口口 |----|
口口口口 |----|
口口口口 |----|
口口口口 |----|
94
口口口口 |①---|
口口①口 |----|
口口口口 |----|
口口口口 |----|

不確定度: 0

最終更新:2014年12月12日 02:32