大藝術家 -The Great Artist-
蔡依林 -Jolin Tsai-

BASIC

Level: 2
BPM: 96
Notes: 194

1
口口口口 |----|
口口口口 |----|
口口口口 |----|
口口口口 |----|
2
口口口口 |----|
口口口口 |----|
口口口口 |----|
口口口口 |----|
3
口口口口 |----|
口口口口 |----|
口口口口 |----|
口口口口 |----|
4
口口④④ |①---|
口口口③ |②---|
口口口② |③---|
口口口① |④---|
5
④④口口 |①---|
③口口口 |②---|
②口口口 |③---|
①口口口 |④---|
6
口口口口 |①---|
口口口口 |②---|
④④②② |③---|
口③①口 |④---|
7
口口①口 |①---|
口②口口 |②---|
口口③口 |③---|
口④口口 |④---|
8
口口④④ |①---|
口口口③ |②---|
口口口② |③---|
口口口① |④---|
9
④④口口 |①---|
③口口口 |②---|
②口口口 |③---|
①口口口 |④---|
10
口口口口 |①---|
口口口口 |②---|
④④②② |③---|
口③①口 |④---|
11
口口①口 |①---|
口②口口 |②---|
口口③口 |③---|
口④口口 |④---|
12
③口口口 |①---|
②口口口 |②---|
①口口口 |③---|
口口口口 |----|
13
口口口③ |①---|
口口口② |②---|
口口口① |③---|
口口口口 |----|
14
口①口口 |①---|
口②口口 |②---|
口③口口 |③---|
口口口口 |----|
15
口口①口 |①---|
口口②口 |②---|
口口③口 |③---|
口口口口 |----|
16
口口口口 |①---|
口④④口 |②---|
口③③口 |③---|
口①②口 |④---|
17
①口口② |①---|
口③③口 |②---|
口④④口 |③---|
口口口口 |④---|
18
口口口口 |①---|
口口口口 |②---|
口③④口 |③---|
①口口② |④---|
19
①①①① |①---|
口口口口 |----|
口口口口 |----|
口口口口 |----|
20
口口口口 |①---|
②①①口 |----|
③①①口 |②---|
口口口口 |③---|
21
口口口口 |①---|
口口口④ |②---|
口口口③ |③---|
口①②口 |④---|
22
口口口口 |①---|
口①①③ |----|
口①①② |②---|
口口口口 |③---|
23
口②①口 |①---|
③口口口 |②---|
④口口口 |③---|
口口口口 |④---|
24
④口口④ |①---|
口①②口 |②---|
口③口口 |③---|
口口口口 |④---|
25
④口口④ |①---|
口②①口 |②---|
口口③口 |③---|
口口口口 |④---|
26
口口口口 |①---|
②②①① |②---|
④④③③ |③---|
口口口口 |④---|
27
口口口口 |①---|
口口口口 |----|
口口口口 |----|
口①①口 |----|
28
口③④口 |①---|
②口口口 |②---|
①口口口 |③---|
口口口口 |④---|
29
口口口口 |①---|
口口口① |②---|
口口口② |③---|
口④③口 |④---|
30
口③④口 |①---|
②口口口 |②---|
①口口口 |③---|
口口口口 |④---|
31
口口口口 |①---|
口口口① |②---|
口口口② |③---|
口④③口 |④---|
32
口口口口 |①---|
口①①口 |----|
口①①口 |----|
口口口口 |----|
33
口口口口 |①---|
①口口① |----|
①口口① |----|
口口口口 |----|
34
口口口口 |①---|
口口口口 |----|
口口口口 |----|
口①①口 |----|
35
口①①口 |①---|
口口口口 |----|
口口口口 |----|
口口口口 |----|
36
口口口口 |①---|
口①①口 |----|
口①①口 |----|
口口口口 |----|
37
口口口口 |①---|
①口口① |----|
①口口① |----|
口口口口 |----|
38
口①①口 |①---|
口口口口 |----|
口口口口 |----|
口口口口 |----|
39
口口口① |①---|
口口②口 |②---|
口③口口 |③---|
④口口口 |④---|
40
口口口口 |①---|
②①①口 |----|
③①①口 |②---|
口口口口 |③---|
41
口口口口 |①---|
口口口④ |②---|
口口口③ |③---|
口①②口 |④---|
42
口口口口 |①---|
口①①③ |----|
口①①② |②---|
口口口口 |③---|
43
口②①口 |①---|
③口口口 |②---|
④口口口 |③---|
口口口口 |④---|
44
④口口④ |①---|
口①②口 |②---|
口③口口 |③---|
口口口口 |④---|
45
④口口④ |①---|
口②①口 |②---|
口口③口 |③---|
口口口口 |④---|
46
口口口口 |①---|
②②①① |②---|
④④③③ |③---|
口口口口 |④---|
47
口口口口 |①---|
口口口口 |----|
口口口口 |----|
口①①口 |----|

不確定度: 0

最終更新:2014年12月12日 01:50