concon
S-C-U

ADVANCED

Level: 9
BPM: 190
Notes: 635

1
口口口口 |----|
口口口口 |----|
口口口口 |----|
口口口口 |----|
2
①口③口 |①-②-|
口②口④ |③-④-|
①口③口 |--⑤-|
口⑤⑥口 |--⑥-|
3
口口口口 |--①-|
①口⑥② |②-③-|
口⑤口⑦ |④-⑤-|
③口口④ |⑥-⑦-|
4
①口③口 |①-②-|
口②口④ |③-④-|
①口③口 |--⑤-|
口⑤⑥口 |--⑥-|
5
口口口口 |--①-|
①⑥口② |②-③-|
⑦口⑤口 |④-⑤-|
④口口③ |⑥-⑦-|
6
④口口⑤ |--①-|
③口口② |②-③-|
口口口① |④-⑤-|
⑥口口口 |--⑥-|
7
⑥口口口 |--①-|
④口口⑤ |②-③-|
③口口② |④-⑤-|
口口口① |--⑥-|
8
口口口口 |--①-|
④口口⑤ |②-③-|
③口口② |④-⑤-|
口⑥口① |--⑥-|
9
口④口口 |①-②-|
口口③口 |③-④-|
口①②口 |--⑤-|
⑤⑥⑦口 |⑥-⑦-|
10
①口③口 |①-②-|
口②口④ |③-④-|
①口③口 |--⑤-|
口⑤⑥口 |--⑥-|
11
口口口口 |--①-|
①口⑥② |②-③-|
口⑤口⑦ |④-⑤-|
③口口④ |⑥-⑦-|
12
①口③口 |①-②-|
口②口④ |③-④-|
①口③口 |--⑤-|
口⑤⑥口 |--⑥-|
13
口口口口 |--①-|
①⑥口② |②-③-|
⑦口⑤口 |④-⑤-|
④口口③ |⑥-⑦-|
14
④口口⑤ |--①-|
③口口② |②-③-|
口口口① |④-⑤-|
⑥口口口 |--⑥-|
15
⑥口口口 |--①-|
④口口⑤ |②-③-|
③口口② |④-⑤-|
口口口① |--⑥-|
16
口口口口 |--①-|
④口口⑤ |②-③-|
③口口② |④-⑤-|
口⑥口① |--⑥-|
17
⑤④口口 |①-②-|
口口③口 |③-④-|
⑤①②口 |----|
口口口口 |--⑤-|
18
口⑤⑤① |①---|
②口口③ |②-③-|
口口口① |--④-|
②④④③ |--⑤-|
19
口口口口 |--①-|
②③①④ |②-③-|
④②③① |--④-|
⑤口口⑤ |--⑤-|
20
①②②① |①---|
口⑤口口 |②-③-|
④口⑥口 |--④-|
口③③口 |⑤-⑥-|
21
口⑤口③ |①---|
⑤口③① |②-③-|
口④口② |--④-|
④口②口 |⑤---|
22
①口③口 |①-②-|
口②口④ |③-④-|
①口③口 |--⑤-|
口⑤⑥口 |--⑥-|
23
口口口口 |--①-|
①口⑥② |②-③-|
口⑤口⑦ |④-⑤-|
③口口④ |⑥-⑦-|
24
①口③口 |①-②-|
口②口④ |③-④-|
①口③口 |--⑤-|
口⑤⑥口 |--⑥-|
25
⑦口口口 |--①-|
①⑥口② |②-③-|
⑦口⑤口 |④-⑤-|
口④口③ |⑥-⑦-|
26
口⑤⑤① |①---|
②口口③ |②-③-|
口口口① |--④-|
②④④③ |--⑤-|
27
口口口口 |--①-|
②③①④ |②-③-|
④②③① |--④-|
⑤口口⑤ |--⑤-|
28
①②②① |①---|
口口口口 |②---|
⑤口口⑥ |③-④-|
口③④口 |⑤-⑥-|
29
口③口口 |--①-|
口口②口 |②-③-|
口①口口 |--④-|
⑤④④⑤ |⑤---|
30
①口③口 |①-②-|
口②口④ |③-④-|
①口③口 |--⑤-|
口⑤⑥口 |--⑥-|
31
口口口口 |--①-|
①口⑥② |②-③-|
口⑤口⑦ |④-⑤-|
③口口④ |⑥-⑦-|
32
①口③口 |①-②-|
口②口④ |③-④-|
①口③口
口口口口

⑥口口⑥
口口口口
口口口口 |--⑤-|
口⑤口口 |--⑥-|
33
口①口口 |①-②-|
①②③口 |③-④-|
口③④⑤ |⑤-⑥-|
⑦口⑤⑥ |--⑦-|
34
⑤口口④ |①---|
口口口口 |--②-|
①口口② |③---|
口口口③ |④-⑤-|
35
口口口口 |①---|
口口口口 |--②-|
口口口口
①口②口

⑤口口④
口口口口
口口口③ |③-④-|
⑥口口口 |⑤-⑥-|
36
口②口口 |①---|
口口口口 |--②-|
口口口口
口口口①

口口口④
③口口口
口口口口 |③---|
口口口⑤ |④-⑤-|
37
口③口口 |①---|
②⑤⑥口 |--②-|
口④⑤口 |③-④-|
①口口口 |⑤-⑥-|
38
②⑦⑥① |①-②-|
口⑤口口 |③-④-|
口口⑤口 |--⑤-|
④口口③ |⑥-⑦-|
39
口口口口 |①-②-|
⑤口③④ |--③-|
⑦③口⑥ |④-⑤-|
口②①口 |⑥-⑦-|
40
②⑦⑥① |①-②-|
口口⑤口 |③-④-|
口⑤口口 |--⑤-|
④口口③ |⑥-⑦-|
41
口口口口 |①-②-|
⑤③⑥④ |--③-|
口⑦③口 |④-⑤-|
口②①口 |⑥-⑦-|
42
⑤口口④ |①---|
口口口口 |--②-|
①口口② |③---|
口口口③ |④-⑤-|
43
口口口口 |①---|
口口口口 |--②-|
口口口口
①口②口

⑤口口④
口口口口
口口口③ |③-④-|
⑥口口口 |⑤-⑥-|
44
口②口口 |①---|
口口口口 |--②-|
口口口口
口口口①

口口口④
③口口口
口口口口 |③---|
口口口⑤ |④-⑤-|
45
口③口口 |①---|
②⑤⑥口 |--②-|
口④⑤口 |③-④-|
①口口口 |⑤-⑥-|
46
②⑦⑥① |①-②-|
口⑤口口 |③-④-|
口口⑤口 |--⑤-|
④口口③ |⑥-⑦-|
47
口口口口 |①-②-|
⑤口③④ |--③-|
⑦③口⑥ |④-⑤-|
口②①口 |⑥-⑦-|
48
②口口① |①-②-|
⑥⑧口⑤ |③-④-|
口口口⑦ |⑤-⑥-|
④口口③ |⑦-⑧-|
49
口口口口 |①-②-|
口口④口 |③-④-|
③①⑤口 |⑤-⑥-|
口②⑥⑦ |--⑦-|
50
①②④⑥ |①-②-|
②③⑤⑧ |③-④-|
④⑤⑦口 |⑤-⑥-|
⑥⑧口口 |⑦-⑧-|
51
口口口口 |①-②-|
口口④口 |--③-|
口③口① |--④-|
口口①② |----|
52
①②④⑥ |①-②-|
②③⑤⑧ |③-④-|
④⑤⑦口 |⑤-⑥-|
⑥⑧口口 |⑦-⑧-|
53
口口口口 |①-②-|
口口④口 |--③-|
口③口① |--④-|
口口①② |----|
54
口口口④ |①-②-|
③口⑥口 |③-④-|
口⑤口② |--⑤-|
①口口口 |--⑥-|
55
①口口② |--①-|
口口口口 |②---|
④⑤口口 |--③-|
③④口口 |④-⑤-|
56
①口④⑤ |①-②-|
口口③④ |--③-|
口口口口 |--④-|
口口口② |⑤---|
57
口口口口 |----|
口口口口 |----|
口口口口 |----|
口口口① |--①-|
58
①②④⑥ |①-②-|
②③⑤⑧ |③-④-|
④⑤⑦口 |⑤-⑥-|
⑥⑧口口 |⑦-⑧-|
59
口口口口 |①-②-|
口口④口 |--③-|
口③口① |--④-|
口口①② |----|
60
①②④⑥ |①-②-|
②③⑤⑧ |③-④-|
④⑤⑦口 |⑤-⑥-|
⑥⑧口口 |⑦-⑧-|
61
口②④口 |①--②|
②④③⑥ |--③-|
⑤③⑥① |-④--|
口⑤①口 |⑤-⑥-|
62
②口口③ |①---|
口口口口 |②-③-|
口口口①
口口①口

口口口口
④口④口
口口口口 |--④-|
口⑤⑤口 |--⑤-|
63
口①口② |--①-|
口③口口 |②---|
口口④口 |--③-|
口口口⑤ |④-⑤-|
64
⑦①⑥④ |①-②-|
①⑦④⑥ |③-④-|
⑤③口② |--⑤-|
③⑤②口 |⑥-⑦-|
65
口口口口 |①---|
口口口口 |----|
口口①口 |----|
口口口① |----|
66
①口⑥② |①-②-|
口口口⑥ |③-④-|
⑦⑤口口 |⑤-⑥-|
③⑦口④ |--⑦-|
67
①⑥口② |①-②-|
⑥口口口 |③-④-|
口⑤⑤⑦ |--⑤-|
③口⑦④ |⑥-⑦-|
68
①口⑥② |①-②-|
口口口⑥ |③-④-|
⑦⑤口口 |⑤-⑥-|
③⑦口④ |--⑦-|
69
①⑥口② |①-②-|
⑥口口口 |③-④-|
口⑤⑤⑦ |--⑤-|
③口⑦④ |⑥-⑦-|
70
口口口口 |①-②-|
口③②① |③-④-|
④⑤⑥口 |⑤-⑥-|
口口⑧⑦ |⑦-⑧-|
71
②③④口 |①-②-|
口口口口 |③-④-|
⑧⑦⑥⑤ |⑤-⑥-|
口①口口 |⑦-⑧-|
72
口口口口 |①-②-|
①②③口 |③-④-|
口⑥⑤④ |⑤-⑥-|
⑦⑧口口 |⑦-⑧-|
73
口⑧口口 |①-②-|
口⑦口④ |③-④-|
口⑥⑤③ |⑤-⑥-|
口口①② |⑦-⑧-|
74
①口⑥② |①-②-|
口口口⑥ |③-④-|
⑦⑤口口 |⑤-⑥-|
③⑦口④ |--⑦-|
75
①⑥口② |①-②-|
⑥口口口 |③-④-|
口⑤⑤⑦ |--⑤-|
③口⑦④ |⑥-⑦-|
76
①口⑥② |①-②-|
口口口⑥ |③-④-|
⑦⑤口口 |⑤-⑥-|
③⑦口④ |--⑦-|
77
①⑥口② |①-②-|
⑥口口口 |③-④-|
口⑤⑤⑦ |--⑤-|
③口⑦④ |⑥-⑦-|
78
口口口口 |①-②-|
口③②① |③-④-|
④⑤⑥口 |⑤-⑥-|
口口⑧⑦ |⑦-⑧-|
79
②③④口 |①-②-|
口口口口 |③-④-|
⑧⑦⑥⑤ |⑤-⑥-|
口①口口 |⑦-⑧-|
80
口③④口 |①-②-|
①⑤⑥② |③-④-|
⑦口口⑧ |⑤-⑥-|
口口口口 |⑦-⑧-|
81
口⑦⑧口 |①-②-|
口⑤⑥口 |③-④-|
口③④口 |⑤-⑥-|
口①②口 |⑦-⑧-|
82
③口口④ |①-②-|
⑤口口⑥ |③-④-|
⑤口口⑥ |--⑤-|
①口口② |--⑥-|
83
口口①口 |--①-|
口①口口 |②---|
口口②口 |----|
口②口口 |----|


不确定度: 0

タグ:

+ タグ編集
  • タグ:

このサイトはreCAPTCHAによって保護されており、Googleの プライバシーポリシー利用規約 が適用されます。

最終更新:2012年11月10日 13:42