大藝術家 -The Great Artist-
蔡依林 -Jolin Tsai-

ADVANCED

Level: 7
BPM: 96
Notes: 528

1
口口口口 |----|
口口口口 |----|
口口口口 |----|
口口口口 |----|
2
口口口口 |①-②-|
⑥④③⑤ |③-④-|
⑧②①⑦ |⑤-⑥-|
口口口口 |⑦-⑧-|
3
⑧⑥⑤⑦ |①-②-|
口④③口 |③-④-|
口②①口 |⑤-⑥-|
口口口口 |⑦-⑧-|
4
口口①口 |①②③④|
口⑥⑤口 |⑤⑥⑦⑧|
④⑧⑦口
口②③口

⑩口口⑨
⑫⑮⑭⑪
口口口口 |⑨⑩⑪⑫|
口口⑬口 |⑬-⑭⑮|
5
口口口口 |--①②|
⑤口口口 |③④⑤-|
③口口④
①口口②

口⑥⑦口
口⑧⑨口
⑩口口⑪ |⑥⑦⑧⑨|
口口口口 |⑩-⑪-|
6
口①口口 |-①②③|
口③②口 |④-⑤-|
口口口口
⑤口口④

⑥口口口
口⑩⑩⑦
口⑨⑨口 |⑥⑦⑧-|
口⑧口口 |⑨-⑩-|
7
口口④① |--①②|
②⑤⑥口 |③-④-|
⑨口口⑨ |⑤⑥-⑦|
口⑦⑧③ |⑧-⑨-|
8
①口口② |--①②|
③④⑤⑥ |③④⑤⑥|
口口口口
口口口口

⑫口口⑫
口口口口
口⑪⑪口 |⑦⑧⑨⑩|
⑦⑧⑨⑩ |⑪-⑫-|
9
口②①口 |--①②|
⑥⑤④③ |③④⑤⑥|
口口口口
口口口口

口⑬⑫口
口口口口
口⑪⑪口 |⑦⑧⑨⑩|
⑩⑨⑧⑦ |⑪-⑫⑬|
10
口口口口 |-①②③|
口①②③ |④-⑤-|
口⑤⑤口
口④④口

⑧⑦⑥口
口⑩⑩口
口口口口 |⑥⑦⑧-|
⑨口口⑨ |⑨-⑩-|
11
口口口口 |--①②|
口口口口 |③-④-|
口①②③
④口口④

⑤口口⑤
口⑨⑨口
口⑧口口 |⑤-⑥⑦|
口⑥⑦口 |⑧-⑨-|
12
口④④口 |①-②③|
②口⑤⑤ |④-⑤-|
口③口口
口口口①

口口口口
口口口口
口⑩⑨⑥ |⑥---|
口⑧⑦口 |⑦⑧⑨⑩|
13
口④④口 |①-②③|
⑤⑤③② |④-⑤-|
⑥⑨⑩口 |⑥---|
口⑦⑧① |⑦⑧⑨⑩|
14
口④④口 |①-②③|
口③⑤⑤ |④-⑤-|
②⑩⑨⑥ |⑥---|
①⑧⑦口 |⑦⑧⑨⑩|
15
⑤④口口 |①-②③|
口口③② |④⑤⑥⑦|
口⑦⑥口
口口口①

⑩口口口
⑧口口⑨
⑧口口⑨ |⑧---|
口口口口 |⑨-⑩-|
16
⑦⑦口口 |--①②|
口②①口 |③④⑤-|
口④③口 |⑥---|
⑥⑥⑤口 |⑦---|
17
⑨口⑧⑧ |①②③④|
⑥①②口 |⑤-⑥-|
口③④口 |⑦---|
口⑤⑦⑦ |⑧-⑨-|
18
口口口口 |--①②|
口②①④ |-③-④|
口②①④
口③③口

⑦口口⑦
⑤口口口
⑤⑧⑧口 |⑤-⑥-|
⑥口口⑥ |⑦-⑧-|
19
口①①口 |①-②③|
⑤④③② |④⑤⑥-|
口口口口
口口口⑥

口⑦⑦口
口口口口
⑧⑨⑩口 |⑦-⑧⑨|
口⑪⑪口 |⑩-⑪-|
20
④口口口 |①---|
①①①① |-②③④|
口口③口
口②口口

口口口口
口⑤⑤口
⑥⑧口⑦ |⑤-⑥⑦|
⑥⑩⑨⑦ |-⑧⑨⑩|
21
口④③② |①-②③|
⑤口口口 |④-⑤-|
⑤口①口
口口口口

口⑦⑦口
口口口⑥
口口口⑥ |⑥---|
口⑧⑧口 |⑦-⑧-|
22
口口口④ |①---|
①①①① |-②③④|
口③口口
口口②口

口口口口
口⑤⑤口
⑦口⑧⑥ |⑤-⑥⑦|
⑦⑨⑩⑥ |-⑧⑨⑩|
23
②③④口 |①-②③|
口⑤⑤口 |④-⑤-|
口①口口
口口口口

口⑧⑦口
口口口口
口⑧⑦口 |⑥---|
⑥口口⑥ |⑦-⑧-|
24
⑦⑦⑧⑧ |--①②|
①②③④ |③④⑤-|
口⑤⑤口 |⑥-⑦-|
⑥⑥口口 |⑧---|
25
⑨⑨⑧⑧ |--①②|
④③②① |③④⑤⑥|
口⑥⑤口 |⑦-⑧-|
⑩⑩⑦⑦ |⑨-⑩-|
26
②②④④ |①---|
口口口口 |②---|
③③①① |③---|
③③①① |④---|
27
口口口口 |①---|
口①①口 |----|
口①①口 |----|
口口口口 |----|
28
口口③③ |①-②-|
口口④口 |③-④-|
口②①口
口口口口

⑦⑦口口
口⑤⑧口
口口⑥口 |⑤-⑥-|
口口口口 |⑦-⑧-|
29
口口口口 |①-②-|
口①④口 |③-④-|
口口②口
口口③③

口口口口
口⑤⑧口
口口⑥口 |⑤-⑥-|
⑦⑦口口 |⑦-⑧-|
30
口口口③ |①-②-|
口①④③ |③-④-|
口口②口
口口口口

⑦口口口
⑦⑤⑧口
口口⑥口 |⑤-⑥-|
口口口口 |⑦-⑧-|
31
口口口口 |①-②-|
口①④口 |③-④-|
口口②③
口口口③

口口口口
口⑤⑧口
⑦口⑥口 |⑤-⑥-|
⑦口口口 |⑦-⑧-|
32
④③②① |①②③④|
⑧⑦⑥⑤ |⑤⑥⑦⑧|
⑫⑪⑩⑨ |⑨⑩⑪⑫|
口口口⑬ |⑬---|
33
①②③④ |①②③④|
⑤⑥⑦⑧ |⑤⑥⑦⑧|
口口口口
口口口口

口⑬⑬口
口口口口
⑨⑩⑪⑫ |⑨⑩⑪⑫|
口口口口 |-⑬--|
34
①口口① |----|
口口口口 |----|
口口口口 |①---|
口口口口 |----|
35
口口口口 |①---|
口口①口 |----|
口①口口 |②---|
②口口② |----|
36
④③②① |①②③④|
⑧⑦⑥⑤ |⑤⑥⑦⑧|
口口口口
口口口口

口口口口
口⑬⑬口
⑫⑪⑩⑨ |⑨⑩⑪⑫|
口口口口 |-⑬--|
37
①②③④ |①②③④|
⑤⑥⑦⑧ |⑤⑥⑦⑧|
⑨⑩⑪⑫ |⑨⑩⑪⑫|
⑬口口口 |⑬---|
38
②口口② |①---|
口口①口 |----|
口①④口 |②---|
③口口口 |③-④-|
39
①口口① |①---|
②口口② |②---|
③口口③ |③---|
④⑤⑤④ |④-⑤-|
40
④口口口 |①---|
①①①① |-②③④|
口口③口
口②口口

口口口口
口⑤⑤口
⑥⑧口⑦ |⑤-⑥⑦|
⑥⑩⑨⑦ |-⑧⑨⑩|
41
口④③② |①-②③|
⑤口口口 |④-⑤-|
⑤口①口
口口口口

口⑦⑦口
口口口⑥
口口口⑥ |⑥---|
口⑧⑧口 |⑦-⑧-|
42
口口口④ |①---|
①①①① |-②③④|
口③口口
口口②口

口口口口
口⑤⑤口
⑦口⑧⑥ |⑤-⑥⑦|
⑦⑨⑩⑥ |-⑧⑨⑩|
43
②③④口 |①-②③|
口⑤⑤口 |④-⑤-|
口①口口
口口口口

口⑧⑦口
口口口口
口⑧⑦口 |⑥---|
⑥口口⑥ |⑦-⑧-|
44
⑦⑦⑧⑧ |--①②|
①②③④ |③④⑤-|
口⑤⑤口 |⑥-⑦-|
⑥⑥口口 |⑧---|
45
⑨⑨⑧⑧ |--①②|
④③②① |③④⑤⑥|
口⑥⑤口 |⑦-⑧-|
⑩⑩⑦⑦ |⑨-⑩-|
46
②②④④ |①---|
口口口口 |②---|
③③①① |③---|
③③①① |④---|
47
口口口口 |①---|
口①①口 |----|
口①①口 |----|
口口口口 |----|

不確定度: 0

最終更新:2014年12月12日 01:50