全城熱愛 -Feel The Love-
羅志祥 -Show Lo-

BASIC

Level: 3
BPM: 130
Notes: 228

1
口口口口 |----|
口口口口 |----|
口口口口 |----|
口口口口 |----|
2
口口口① |①---|
口口口② |②---|
口口口③ |③---|
口口口④ |④---|
3
口口①口 |①---|
口口②口 |②---|
口口③口 |③---|
口口④口 |④---|
4
口①口口 |①---|
口②口口 |②---|
口③口口 |③---|
口④口口 |④---|
5
①口口口 |①---|
②口口口 |②---|
③口口口 |③---|
④口口口 |④---|
6
口口口口 |①---|
口口口口 |②---|
口口口口 |③---|
④③②① |④---|
7
口口口口 |①---|
口口口口 |②---|
④③②① |③---|
口口口口 |④---|
8
口口口口 |①---|
④③②① |②---|
口口口口 |③---|
口口口口 |④---|
9
口口口① |①---|
口口口口 |----|
口口口口 |----|
口口口口 |----|
10
口口口口 |①---|
口口口口 |②---|
④③②① |③---|
口口口口 |④---|
11
口口口口 |①--②|
口①①口 |--③-|
口②②口 |----|
口③③口 |----|
12
口口口口 |①---|
口口口口 |②---|
①②③④ |③---|
口口口口 |④---|
13
口口口口 |①--②|
口③③口 |--③-|
口②②口 |----|
口①①口 |----|
14
口口口口 |①---|
④③②① |②---|
口口口口 |③---|
口口口口 |④---|
15
口①①口 |①--②|
口②②口 |--③-|
口③③口 |----|
口口口口 |----|
16
口口口口 |①---|
①②③④ |②---|
口口口口 |③---|
口口口口 |④---|
17
口③③口 |①--②|
口②②口 |--③-|
口①①口 |----|
口口口口 |----|
18
口口口口 |①---|
口口口口 |②---|
④口口③ |③---|
②②口① |④---|
19
④口口③ |①---|
②②口① |②---|
口口口口 |③---|
口口口口 |④---|
20
口口口口 |①---|
口口口口 |----|
口①①③ |②---|
口口口② |③---|
21
口口口口 |①---|
口①①口 |----|
③口口口 |②---|
②口口口 |③---|
22
②②口① |①---|
④口口③ |②---|
口口口口 |③---|
口口口口 |④---|
23
口口口口 |①---|
口口口口 |②---|
②②口① |③---|
④口口③ |④---|
24
口口口口 |①---|
口口口口 |----|
口①①③ |②---|
口口口② |③---|
25
③口口口 |①---|
②①①口 |②---|
口口口口 |③---|
口口口口 |----|
26
口①①口 |①---|
口口口口 |----|
口口口③ |②---|
口口口② |③---|
27
口口口口 |①---|
口①①口 |----|
③口口口 |②---|
②口口口 |③---|
28
口口口口 |①--②|
口①①口 |--③-|
口②②口 |----|
④③③口 |④---|
29
口口口口 |①--②|
口③③口 |--③-|
口②②口 |----|
口①①④ |④---|
30
②口口口 |①---|
③①①口 |----|
口口口口 |②---|
口口口口 |③---|
31
口口口② |①---|
口口口③ |----|
口①①口 |②---|
口口口口 |③---|
32
④①①口 |①--②|
口②②口 |--③-|
口③③口 |----|
口口口口 |④---|
33
口③③④ |①--②|
口②②口 |--③-|
口①①口 |----|
口口口口 |④---|
34
②④口口 |①---|
①③口口 |②---|
口口口口 |③---|
口口口口 |④---|
35
口口②④ |①---|
口口①③ |②---|
口口口口 |③---|
口口口口 |④---|
36
②④口口 |①---|
①③口口 |②---|
口口口口 |③---|
口口口口 |④---|
37
口口②口 |①---|
口口①③ |②---|
口口口③ |③---|
口口口口 |----|
38
②④口口 |①---|
口口口口 |②---|
①③口口 |③---|
口口口口 |④---|
39
口口②④ |①---|
口口口口 |②---|
口口①③ |③---|
口口口口 |④---|
40
②④口口 |①---|
口口口口 |②---|
①③口口 |③---|
口口口口 |④---|
41
口口②④ |①---|
口口口口 |②---|
口口①③ |③---|
口口口口 |④---|
42
口口口口 |①---|
①②③④ |②---|
①②③④ |③---|
口口口口 |④---|
43
口口口口 |----|
口口口口 |----|
口口口口 |----|
口口口口 |----|
44
口口口口 |①---|
口口口口 |②---|
④口口③ |③---|
②②口① |④---|
45
④口口③ |①---|
②②口① |②---|
口口口口 |③---|
口口口口 |④---|
46
口口口口 |①---|
口口口口 |②---|
口④③口 |③---|
②②①口 |④---|
47
口口口口 |①---|
④③②① |②---|
④③②口 |③---|
口口口口 |④---|
48
口口④② |①---|
口口③① |②---|
口口口口 |③---|
口口口口 |④---|
49
④②口口 |①---|
③①口口 |②---|
口口口口 |③---|
口口口口 |④---|
50
口口④② |①---|
口口口口 |②---|
口口③① |③---|
口口口口 |④---|
51
④②口口 |①---|
④口口口 |②---|
③①口口 |③---|
口口口口 |④---|

不確定度: 0

最終更新:2014年12月12日 01:47