全城熱愛 -Feel The Love-
羅志祥 -Show Lo-

ADVANCED

Level: 7
BPM: 130
Notes: 438

1
口口口口 |----|
口口口口 |----|
口口口口 |----|
口口口口 |----|
2
口口⑧口 |①---|
口⑦⑥口 |②-③-|
口⑤④口 |④⑤-⑥|
③①①② |⑦-⑧-|
3
口⑧口口 |①---|
口⑥⑦口 |②-③-|
口④⑤口 |④⑤-⑥|
②①①③ |⑦-⑧-|
4
口口⑧口 |①---|
口⑦⑥口 |②-③-|
口⑤④口 |④⑤-⑥|
③①①② |⑦-⑧-|
5
①⑤④口 |①--②|
①⑦⑥② |--③-|
③口⑧② |④-⑤-⑥-|
③口口口 |⑦-⑧---|
6
⑧口口口 |①---|
⑥口口⑦ |②-③-|
④口口⑤ |④⑤-⑥|
①②③① |⑦-⑧-|
7
口口口⑧ |①---|
⑦口口⑥ |②-③-|
⑤口口④ |④⑤-⑥|
①③②① |⑦-⑧-|
8
⑧口口口 |①---|
⑥口口⑦ |②-③-|
④口口⑤ |④⑤-⑥|
①②③① |⑦-⑧-|
9
口口口口 |①---|
口口口口 |----|
口①①口 |----|
口口口口 |----|
10
口口口口 |①-②-|
⑤⑥⑦⑧ |③-④-|
口④③② |⑤-⑥-|
①口口口 |⑦-⑧-|
11
④口口口 |①--②|
口口口口 |--③-|
②①①② |----|
③口口③ |④---|
12
口口口① |①-②-|
②③④口 |③-④-|
⑧⑦⑥⑤ |⑤-⑥-|
口口口口 |⑦-⑧-|
13
③口口③ |①--②|
②①①② |--③-|
口口口口 |----|
④口口口 |④---|
14
①⑧②口 |①-②-|
口⑦③口 |③-④-|
口⑥④口 |⑤-⑥-|
口⑤口口 |⑦-⑧-|
15
④口口口 |①--②|
①口口① |--③-|
②口口② |----|
③口口③ |④---|
16
口②⑧① |①-②-|
口③⑦口 |③-④-|
口④⑥口 |⑤-⑥-|
口口⑤口 |⑦-⑧-|
17
③口口③ |①--②|
②口口② |--③-|
①口口① |----|
④口口口 |④---|
18
③④②① |①-②-|
⑧⑦⑥⑤ |③-④-|
口口口口 |⑤-⑥-|
口口口口 |⑦-⑧-|
19
口口口口 |①-②-|
口口口口 |③-④-|
①②④③ |⑤-⑥-|
⑤⑥⑦⑧ |⑦-⑧-|
20
口口口口 |①-②-|
⑤①①口 |--③-|
④②②口 |--④-|
③口口口 |--⑤-|
21
③口口③ |①-②-|
口②②口 |--③-|
口①①口
口口口口

口口口口
④口⑥④
口口口口 |④---|
⑤口口口 |⑤-⑥-|
22
①②④③ |①-②-|
⑤⑥⑦⑧ |③-④-|
口口口口 |⑤-⑥-|
口口口口 |⑦-⑧-|
23
口口口口 |①-②-|
口口口口 |③-④-|
③④②① |⑤-⑥-|
⑧⑦⑥⑤ |⑦-⑧-|
24
口口口口 |①-②-|
口①①⑤ |--③-|
口②②④ |--④-|
口口口③ |--⑤-|
25
口口口口 |①-②-|
口②②口 |③④⑤⑥|
⑥①①⑤
口④③口

口口口口
口口⑩⑦
口⑨口口 |⑦-⑧-|
⑧口口口 |⑨-⑩-|
26
②①①口 |①---|
口口口口 |②---|
口口口口
口口口口

口口④④
③⑤⑤口
⑥⑥口口 |③-④-|
口口口口 |⑤-⑥-|
27
口⑥⑥口 |①---|
口⑤⑤① |②---|
口④④② |③-④-|
口口口③ |⑤-⑥-|
28
口⑥⑥口 |①--②|
①⑤⑤① |--③-|
②④④② |--④-|
③口口③ |⑤-⑥-|
29
口口口口 |①--②|
①口⑥① |--③-|
②⑤口② |--④-|
③口④③ |⑤-⑥-|
30
口①①② |①---|
口口口口 |②---|
口口口口
口口口口

④④口口
口⑤⑤③
口口⑥⑥ |③-④-|
口口口口 |⑤-⑥-|
31
口⑥⑥口 |①---|
①⑤⑤口 |②---|
②④④口 |③-④-|
③口口口 |⑤-⑥-|
32
口⑥⑥口 |①--②|
①⑤⑤① |--③-|
②④④② |--④-|
③口口③ |⑤-⑥-|
33
口口口口 |①--②|
①⑥口① |--③-|
②口⑤② |--④-|
③④口③ |⑤-⑥-|
34
口口口① |①---|
口口②① |②---|
口②口口
口口口口

⑤④③⑤
口口口口
④口口③ |③-④-|
口口口口 |--⑤-|
35
④口口④ |----|
③①口② |①---|
口口①口 |②-③-|
③口口② |--④-|
36
④口②④ |----|
口③①口 |①---|
口①②口 |②-③-|
口③口口 |--④-|
37
口口口口 |--①-|
①⑤口① |--②-|
②口④② |--③-|
口口口③ |④-⑤-|
38
口口口① |①---|
口口②① |②---|
口②口口
口口口口

⑤④③⑤
口口口口
④口口③ |③-④-|
口口口口 |--⑤-|
39
④口①④ |----|
口③②口 |①---|
口①口口 |②-③-|
口③②口 |--④-|
40
④③②④ |----|
口①口口 |①---|
口③②口 |②-③-|
口口①口 |--④-|
41
口口口口 |--①-|
①口口① |--②-|
②③④② |--③-|
口③④口 |--④-|
42
④③②① |①-②-|
⑧⑦⑥⑤ |③-④-|
口口口口 |⑤-⑥-|
口口口口 |⑦-⑧-|
43
口口口口 |----|
口口口口 |----|
口口口口 |----|
口口口口 |----|
44
口口⑧⑧ |①---|
口⑦⑥口 |②-③-|
口⑤④② |④⑤-⑥|
③①①② |⑦-⑧-|
45
⑧⑧口口 |①---|
口⑥⑦口 |②-③-|
②④⑤口 |④⑤-⑥|
②①①③ |⑦-⑧-|
46
口口⑧⑧ |①---|
⑦口口⑥ |②-③-|
⑤口②④ |④⑤-⑥|
①③②① |⑦-⑧-|
47
⑩⑪口口 |①---②-|
⑥⑦⑧⑨ |③-④-⑤-|
②③④⑤ |⑥-⑦-⑧-|
①口口① |⑨-⑩-⑪-|
48
⑥口口⑦ |①---|
④⑧⑧⑤ |②-③-|
口②③口 |④⑤-⑥|
口口①① |⑦-⑧-|
49
⑦口口⑥ |①---|
⑤⑧⑧④ |②-③-|
口③②口 |④⑤-⑥|
①①口口 |⑦-⑧-|
50
⑥口口⑦ |①---|
④⑧⑧⑤ |②-③-|
口②③口 |④⑤-⑥|
口口①① |⑦-⑧-|
51
口口口④ |①--②|
⑤⑥⑦⑧ |③-④-|
⑤⑥⑦⑧ |⑤-⑥-|
①③②① |⑦-⑧-|

不確定度: 0

最終更新:2014年12月12日 01:47