ザッツ!KAIYODO
はちきんガールズ

BASIC

Level: 3
BPM: 149
Notes: 163

1
口口口口 |----|
口口口口 |----|
口口口口 |----|
口口口口 |----|
2
①口口口 |①---|
②口口口 |----|
口口口口 |②---|
口口口口 |----|
3
口口口口 |①---|
口口口口 |----|
①口口口 |----|
口口口口 |----|
4
口口口① |①---|
口口口② |----|
口口口口 |②---|
口口口口 |----|
5
口口口口 |①---|
口口口口 |----|
口口口① |----|
口口口口 |----|
6
口口口口 |①---|
口①①口 |----|
口口口口 |----|
口口口口 |----|
7
口口口口 |①---|
口口口口 |----|
口①口口 |----|
口口口口 |----|
8
口口口口 |①---|
口口口口 |----|
口口①口 |----|
口口口口 |----|
9
口口口口 |①---|
口口口口 |----|
口口口口 |----|
口①①口 |----|
10
口口口口 |①---|
口口口口 |----|
①②口口 |②---|
口口口口 |----|
11
口口口口 |①---|
①②口口 |----|
口口口口 |②---|
口口口口 |----|
12
口口口口 |①---|
口口①② |----|
口口口口 |②---|
口口口口 |----|
13
口口口口 |①---|
口口口口 |----|
口口①② |②---|
口口口口 |----|
14
口口口口 |①---|
口②①口 |----|
口口口口 |②---|
口口口口 |----|
15
口口口口 |①---|
口口口口 |----|
口②①口 |②---|
口口口口 |----|
16
口口口口 |①---|
②口口② |----|
①口口① |②---|
口口口口 |----|
17
①①②② |①---|
口口口口 |----|
口口口口 |②---|
口口口口 |----|
18
口口口口 |--①-|
口①①口 |----|
口口口口 |②---|
口②②口 |----|
19
口口口口 |----|
口口口口 |----|
口口口口 |----|
口口口口 |----|
20
口口口口 |----|
口口口口 |----|
口口口口 |----|
口口口口 |----|
21
①口口口 |①---|
口②口口 |----|
口口口口 |②---|
口口口口 |----|
22
口口口① |①---|
口口②口 |----|
口口口口 |②---|
口口口口 |----|
23
口口口口 |①---|
①口口口 |----|
口②口口 |②---|
口口口口 |----|
24
①①②② |①---|
口口口口 |----|
口口口口 |②---|
口口口口 |----|
25
口口口口 |①---|
①口口口 |----|
口口口口 |②---|
②口口口 |----|
26
口口口口 |①---|
口①口口 |----|
口口口口 |②---|
口②口口 |----|
27
口口口口 |①---|
②口口② |②---|
①口口① |----|
口口口口 |----|
28
口口口口 |----|
口口口口 |----|
口口口口 |----|
口口口口 |----|
29
口口口口 |①---|
口①①口 |----|
口口口口 |②---|
口②②口 |----|
30
口口口① |①---|
口口②口 |----|
口口口口 |②---|
口口口口 |----|
31
口口口口 |①---|
口口口① |----|
口口②口 |②---|
口口口口 |----|
32
口口口口 |①---|
口口口口 |----|
口口口① |②---|
口口②口 |----|
33
口口口口 |①---|
口②②口 |----|
口①①口 |②---|
口口口口 |----|
34
口口口口 |①---|
口口口① |----|
口口口口 |②---|
口口口② |----|
35
口口口口 |①---|
口口①口 |----|
口口口口 |②---|
口口②口 |----|
36
口口口口 |①---|
②口口② |②---|
①口口① |----|
口口口口 |----|
37
口口口口 |----|
口口口口 |----|
口口口口 |----|
口口口口 |----|
38
口口口口 |①---|
口①①口 |----|
口口口口 |②---|
口②②口 |----|
39
口口口口 |----|
口口口口 |----|
口口口口 |----|
口口口口 |----|
40
口口口④ |①---|
口口③口 |②---|
口②口口 |③---|
①口口口 |④---|
41
口①口口 |①---|
口③口② |②---|
口口口口 |③---|
口口口口 |----|
42
口口口口 |①---|
②口②口 |----|
口口口口 |----|
口①口① |②---|
43
①口①口 |①---|
口口口口 |----|
口口口口 |----|
口口口口 |----|
44
①①口口 |①---|
口口③口 |②---|
口②口口 |③---|
口口口口 |----|
45
①①口口 |①---|
口口③口 |②---|
口②口口 |③---|
口口口口 |----|
46
①口口① |①---|
②口口② |----|
口口口口 |②---|
口口口口 |----|
47
①①②② |①---|
口口口口 |②---|
口③③口 |③---|
口口口口 |----|
48
①口口口 |①---|
口口口② |----|
口口口口 |----|
口口口口 |②---|
49
①①②② |①---|
口口口口 |②---|
口③③口 |③---|
口口口口 |----|
50
口口口口 |①---|
①口口② |②---|
口③④口 |③---|
口口口口 |④---|
51
口口口口 |①---|
口口口口 |②---|
①口口② |③---|
口③④口 |④---|
52
①口口口 |①---|
口口口② |----|
口口口口 |②---|
口口口口 |----|
53
口①口② |①---|
口口口口 |②---|
口③口口 |③---|
口口口口 |----|
54
口口口口 |①---|
①口口② |②---|
口③④口 |③---|
口口口口 |④---|
55
①①②② |①---|
口口口口 |②---|
口③③口 |③---|
口口口口 |----|
56
①口口① |①---|
②口口② |----|
口口口口 |②---|
口口口口 |----|
57
口口口口 |①---|
口口口口 |----|
①口口① |②---|
②口口② |----|
58
①①②② |--①-|
口口口口 |----|
口口口口 |②---|
口口口口 |----|
59
口口口口 |①---|
②口口口 |----|
口①①口 |②---|
口口口口 |----|
60
口口口口 |①---|
口口口口 |----|
①口口口 |----|
口口口口 |----|
61
口口口① |①---|
口口口② |----|
口口口口 |②---|
口口口口 |----|
62
口口口口 |①---|
口口口口 |----|
口口口① |----|
口口口口 |----|
63
口口口口 |①---|
口①①口 |----|
口口口口 |----|
口口口口 |----|

不確定度: 0

最終更新:2014年12月12日 01:44