ザッツ!KAIYODO
はちきんガールズ

ADVANCED

Level: 7
BPM: 149
Notes: 324

1
口①口口 |----|
口口口口 |----|
口口口口 |----|
口口口口 |--①-|
2
口口口口 |①---|
口②①口 |--②-|
口④③口 |③---|
口口口口 |--④-|
3
②口口口 |①---|
口口口口 |----|
口口口口 |----|
口口①口 |--②-|
4
口口口口 |①---|
②口口① |--②-|
④口口③ |③---|
口口口口 |--④-|
5
口口口口 |①---|
口口口口 |----|
口口口口 |----|
口②②① |②---|
6
口口口口 |①---|
口①①口 |②---|
②口④③ |③-④-|
口口口口 |----|
7
口口④③ |①-②-|
①②口口 |③-④-|
口口口口 |----|
口口口口 |----|
8
口口口口 |①---|
③④口口 |②---|
①口②口 |③-④-|
口口口口 |----|
9
③④口口 |①-②-|
口口口口 |③-④-|
口口②① |----|
口口口口 |----|
10
口口口口 |①---|
④⑤⑥⑦ |②-③-|
①④②③ |④-⑤-|
口①口口 |⑥-⑦-|
11
口口口口 |--①-|
口口口口 |②-③-|
①④②③ |④---|
口①⑤⑥ |⑤-⑥-|
12
口①⑤⑥ |①---|
①②③④ |②-③-|
口口口口 |④---|
口口口口 |⑤-⑥-|
13
口口口口 |--①-|
口①口口 |②-③-|
①②③④ |④-⑤-|
口口⑤口 |----|
14
①口口口 |①---|
③口口口 |②---|
口②口口 |③---|
口④口口 |④---|
15
口口①口 |①---|
口口口口 |②---|
口③④② |--③-|
口口口口 |--④-|
16
②②②② |①---|
①①①① |----|
口口口口 |②---|
口口口口 |----|
17
口口②④ |--①-|
①③口口 |--②-|
口口④② |③---|
③①口口 |④---|
18
口①口口 |--①-|
①口③③ |--②-|
③③口② |③---|
口口②口 |----|
19
①口②口 |①---|
口口口口 |----|
口口口口 |②---|
口口口口 |----|
20
口①口② |①---|
口口口口 |----|
口口口口 |②---|
口口口口 |----|
21
口②口口 |①---|
口口③口 |②---|
口①口口 |--③-|
口口④口 |--④-|
22
口口②口 |--①-|
①口④口 |②---|
③口口口 |③-④-|
口口口口 |----|
23
口口口口 |①---|
口②④口 |②---|
口口口口 |③---|
口①③口 |④---|
24
口口②③ |①---|
①③口口 |②---|
口口③② |③---|
③①口口 |----|
25
口②口口 |--①-|
①口口口 |--②-|
口口口④ |--③-|
口口③口 |--④-|
26
口口口口 |--①-|
口口口④ |--②-|
口②③口 |③---|
①口口口 |④---|
27
②口口② |①---|
口口口口 |②---|
口口口口 |----|
口①①口 |----|
28
口口②口 |①---|
口②②口 |②---|
口口①口 |----|
口口①口 |----|
29
口口口口 |①-②-|
③口口③ |--③-|
口口口口 |----|
①①②② |----|
30
②口口口 |①---|
口③口口 |②-③-|
口口口口
①①口口

口口口口
口口④口
口⑤口口 |--④-|
⑥口口口 |⑤-⑥-|
31
⑥口口口 |①---|
④口⑤② |②-③-|
口口③口 |--④-|
口口①① |⑤-⑥-|
32
口②①口 |①---|
口④口口 |----|
口口③口 |--②-|
口口口口 |③-④-|
33
口口口口 |①---|
口口③③ |②-③-|
②②口口 |----|
口口①口 |----|
34
①口口口 |①---|
③②口口 |②---|
口④口口 |③---|
口口口口 |④---|
35
口口口口 |--①-|
③④②① |②---|
口口口口 |③-④-|
口口口口 |----|
36
②口口② |①---|
口口口口 |②---|
口口口口 |----|
口①①口 |----|
37
口口口口 |①---|
口口②② |②---|
口口口口 |----|
①①口口 |----|
38
口口口口 |①-②-|
③口口③ |--③-|
口口口口 |----|
①①②② |----|
39
口口口口 |----|
口口口口 |----|
口口口口 |----|
口口口口 |----|
40
口口口口 |①-②-|
口口口口 |③-④-|
①⑥②口 |--⑤-|
口③⑤④ |⑥---|
41
②口①口 |①---|
口②口口 |②---|
口口③口 |③---|
口口口③ |----|
42
①①①① |①---|
口口口口 |----|
口口口口 |----|
②②②② |②---|
43
口口口口 |①---|
①①①① |----|
口口口口 |----|
口口口口 |----|
44
①①口口 |①---|
口口口口 |②-③-|
③②口口 |④---|
口④口口 |----|
45
口口①① |①---|
口口口口 |②-③-|
口口③② |④---|
口口口④ |----|
46
①口口① |①---|
口口口口 |----|
②口口② |②---|
口口口口 |----|
47
口口②③ |①---|
①③口口 |②---|
口口③② |③---|
③①口口 |----|
48
②②口口 |①-②-|
口口③口 |----|
口④口口 |----|
口口①① |③-④-|
49
③③①② |①---|
①②③③ |②---|
口口②① |③---|
②①口口 |----|
50
口口口口 |①---|
口口口口 |②---|
①口口口 |③-④-|
③⑤④② |⑤---|
51
①口口口 |①---|
③⑤④② |②---|
口口口口 |③-④-|
口口口口 |⑤---|
52
口口②② |①-②-|
口口口口 |----|
口口口口
①①口口

口口口口
口③口④
口口口口 |③---|
④口③口 |④---|
53
①①口口 |①---|
③口②口 |②---|
口口①① |③---|
口②口③ |----|
54
口口口口 |①---|
口口口口 |②---|
①⑤口口 |③-④-|
③口④② |⑤---|
55
口口②③ |①---|
①③口口 |②---|
口口③② |③---|
③①口口 |----|
56
④口口口 |①---|
③口①② |②---|
②①口③ |③---|
口口口④ |④---|
57
口①口口 |①---|
口②③④ |②---|
④③②口 |③---|
口口①口 |④---|
58
口口③口 |--①-|
①口口口 |--②-|
口口口④ |③---|
口②口口 |④---|
59
口②口① |①---|
口①③口 |--②-|
口④①口 |③---|
①口口口 |--④-|
60
②口口口 |①---|
口口口口 |----|
口口口口 |----|
口口①口 |--②-|
61
口口口口 |①---|
②口口① |--②-|
④口口③ |③---|
口口口口 |--④-|
62
口口口口 |①---|
口口口口 |----|
口口口口 |----|
口②②① |②---|
63
口口口口 |①---|
口①①口 |----|
口口口口 |----|
口口口口 |----|

不確定度: 0

最終更新:2014年12月12日 01:44