ザッツ!KAIYODO
はちきんガールズ

EXTREME

Level: 8
BPM: 149
Notes: 458

1
口口口口 |----|
口口口口 |----|
口②口① |----|
口口口口 |--①②|
2
④②③口 |①---|
口⑥口⑤ |--②③|
口口①口 |④---|
口口口口 |--⑤⑥|
3
口口口口 |①-②-|
口口①口 |--③-|
口口口口
②口③口

口口口口
⑥口⑦口
口④⑤口 |--④-|
口口口口 |⑤-⑥⑦|
4
口口口口 |①---|
口①口口 |--②③|
口③④② |④---|
⑤口⑥口 |--⑤⑥|
5
口②口口 |①---|
口口③口 |----|
口④口口 |----|
口①⑤口 |②③④⑤|
6
口口口口 |①---|
口③口口 |②---|
口口④口 |③-④-|
①口口② |----|
7
口口口口 |①-②-|
②口①口 |③-④-|
口④口③ |----|
口口口口 |----|
8
口口①口 |①---|
口口③口 |②---|
口④口口 |③-④-|
口②口口 |----|
9
口口口口 |①-②-|
口②口① |③-④-|
④口③口 |----|
口口口口 |----|
10
口口口口 |①---|
口口口③ |②-③-|
口口②口
口①①①

④④④口
口⑤口口
⑥口口口 |④-⑤-|
口⑦口口 |⑥-⑦-|
11
口③②① |--①②|
口口⑦⑥ |③-④-|
口口⑤口 |⑤---|
口口口④ |⑥-⑦-|
12
口④④④ |①---|
⑤③口口 |②-③-|
②⑥口口 |④---|
①①①口 |⑤-⑥-|
13
口口口口 |--①-|
口口口③ |②-③-|
口口②口
口①①①

⑤⑤⑤口
口口④口
口口口口 |④-⑤-|
口口⑥口 |--⑥-|
14
口口口④ |①-②-|
③口口口 |③---|
口②⑤口 |④---|
①⑥口口 |⑤-⑥-|
15
口口①口 |①-②-|
口⑧③② |③-④-|
⑦⑤口④ |--⑤⑥|
口口⑥口 |⑦-⑧-|
16
口口①① |①---|
口口①① |----|
口口②② |②---|
口口②② |----|
17
②②①⑤ |--①-|
口口⑤口 |②-③-|
口④口口 |④---|
④①③③ |⑤---|
18
口①口口 |--①-|
③③口② |--②-|
②口③③ |③---|
口口①口 |----|
19
口口口口 |①---|
口口口口 |----|
口口口口 |②---|
①口②口 |----|
20
口口口口 |①---|
口口口口 |----|
口口口口 |②---|
口①口② |----|
21
⑤①口⑥ |①--②|
⑤口口⑥ |③-④-|
口③②④ |--⑤-|
口口口口 |--⑥-|
22
口口口口 |--①-|
③口②口 |②-③-|
口①④④ |④-⑤-|
⑤⑤口口 |----|
23
口①口口 |①--②|
⑤③②⑥ |③-④-|
⑦口⑧④ |⑤-⑥-|
口口口口 |⑦-⑧-|
24
②②①③ |①---|
口口③口 |②---|
口③口口 |③---|
③①②② |----|
25
口口口口 |--①-|
⑥⑥②① |②-③-|
③③⑤④ |--④-|
口口口口 |⑤-⑥-|
26
口口口口 |--①-|
口口③口 |②-③-|
口②口口
口口①口

口④口口
口⑥口口
口口⑤口 |④-⑤-|
口口⑦口 |⑥-⑦-|
27
①口①口 |①---|
口口口口 |②---|
口口口口 |----|
口②口② |----|
28
口①口② |①---|
①①②② |②---|
口①口② |----|
口①口② |----|
29
口口③③ |①-②-|
口口口口 |--③-|
口口②② |----|
口口①① |----|
30
口口口口 |①---|
④口口口 |②-③-|
①⑤③① |--④-|
①②⑥① |⑤-⑥-|
31
①①②口 |①---|
口③①① |②-③-|
口口口口
口口口口

口口口口
口口⑥口
口⑤口④ |--④-|
口口口口 |⑤-⑥-|
32
口口口口 |①---|
①口口口 |----|
口口④口 |--②-|
口③口② |③-④-|
33
③③口口 |①---|
①①口② |②-③-|
口口口口 |----|
口口口口 |----|
34
口口口口 |①-②-|
⑧⑦②① |③-④-|
④③⑥⑤ |⑤-⑥-|
口口口口 |⑦-⑧-|
35
口④⑤口 |--①-|
口口③口 |②-③-|
口②口口 |④-⑤-|
口口①口 |----|
36
口口口① |①---|
口口口① |②---|
②口口口 |----|
②口口口 |----|
37
口②口② |①---|
口②②② |②---|
①①②口 |----|
口口①① |----|
38
口口③③ |①-②-|
口口口口 |--③-|
口口②② |----|
口口①① |----|
39
口⑦口口 |--①-|
⑤口⑥口 |②-③-|
③口④口 |④-⑤-|
①口②口 |⑥-⑦-|
40
⑦口⑧⑥ |①②③④|
口⑤口口 |⑤-⑥-|
⑨③④⑩ |⑦-⑧-|
口①②口 |⑨-⑩-|
41
口口口口 |①---|
⑤⑤口口 |②-③④|
口③④口 |⑤---|
①①口② |----|
42
①②口② |①---|
口口口① |----|
①口口口 |----|
②口②① |②---|
43
口口口口 |①---|
口①①口 |----|
口①①口 |----|
口口口口 |----|
44
口口口口 |①-②③|
口③②口 |④-⑤-|
口⑤④⑥ |⑥---|
①①口口 |----|
45
口口①① |①②③④|
口②③口 |⑤-⑥-|
口④⑤口 |⑦---|
⑥口⑦口 |----|
46
①口②口 |①②③④|
③口④口 |⑤---|
口⑤口口
口口口口

口口口口
⑪口口⑩
⑨口⑧口 |⑥⑦⑧⑨|
⑦口⑥口 |⑩-⑪-|
47
②②①③ |①---|
口口③口 |②---|
口③口口 |③---|
③①②② |----|
48
②②口口 |①-②-|
口口口口 |----|
口口①①
口口口口

④④口口
口口③③
口口口口 |----|
口口口口 |③-④-|
49
口口①⑤ |①--②|
②②⑤口 |③-④-|
口④③③ |⑤---|
④①口口 |----|
50
①①口口 |①--②|
口⑥③⑦ |③-④-|
④②⑤口 |⑤-⑥-|
口口①① |⑦---|
51
①①口口 |①--②|
口⑥③⑦ |③-④-|
④②⑤口 |⑤-⑥-|
口口①① |⑦---|
52
①①口口 |①-②-|
②⑥⑤⑦ |--③-|
④口③口 |④-⑤-|
①①口口 |⑥-⑦-|
53
口口①① |①--②|
口口⑤口 |③-④-|
④②③口 |⑤---|
口口①① |----|
54
口①①口 |①--②|
④②③⑤ |③-④-|
⑥口⑦口 |⑤-⑥-|
口①①口 |⑦---|
55
②②①③ |①---|
口口③口 |②---|
口③口口 |③---|
③①②② |----|
56
口口①口 |①--②|
①口口口 |③-④-|
④②③口
口口口口

口⑤口口
⑧⑥⑦⑤
口口口口 |⑤--⑥|
口口口口 |⑦-⑧-|
57
④②③口 |①--②|
口口口口 |③-④-|
口口①口
①口口口

口口口口
口口口口
口⑤⑥口 |⑤---|
⑥口口⑤ |⑥---|
58
②②①④ |--①-|
口口④口 |--②-|
口④口口 |③---|
④①③③ |④---|
59
口②③口 |①---|
①口口① |--②③|
①口口①
口口口口

④口口口
口⑥口⑤
口口口口 |④---|
口口口口 |--⑤⑥|
60
口口口口 |①-②-|
口口①口 |--③-|
口口口口
②口③口

口口口口
⑥口⑦口
口④⑤口 |--④-|
口口口口 |⑤-⑥⑦|
61
口口口口 |①---|
口①口口 |--②③|
口③④② |④---|
⑤口⑥口 |--⑤⑥|
62
口口口口 |①---|
②口③口 |----|
口④口⑤ |----|
口①口口 |②③④⑤|
63
口口口口 |①---|
口口口口 |----|
口口口口 |----|
①①口口 |----|

不確定度: 0

最終更新:2014年12月12日 01:43