LoveLove DokiDoki
水戸ご当地アイドル(仮)

BASIC

Level: 3
BPM: 160
Notes: 306

1
口口口口 |----|
口口口口 |----|
口口口口 |----|
口口口口 |----|
2
口口口口 |①---|
①②口口 |②---|
口口口口 |----|
口口口口 |----|
3
口口口口 |①---|
口口口口 |----|
口①①口 |②---|
口②②口 |----|
4
口口口口 |①---|
口口②① |②---|
口③④口 |③---|
口口口口 |④---|
5
口②②口 |①---|
口①①口 |----|
口口口口 |②---|
口口口口 |----|
6
口口口口 |①---|
①②口口 |②---|
口口口口 |----|
口口口口 |----|
7
口口口口 |①---|
口口口口 |----|
口①①口 |②---|
口②②口 |----|
8
口口口口 |①---|
①口口① |--②-|
②③③② |----|
口口口口 |--③-|
9
口②②口 |--①-|
口①①口 |--②-|
口口口口 |----|
口口口口 |----|
10
口口口口 |①---|
口口口口 |----|
口口②① |②---|
口口口口 |----|
11
口④口口 |①---|
口③口口 |②---|
口②口口 |③---|
口①口口 |④---|
12
口口口口 |①---|
口②①口 |----|
口口口口 |②---|
口口口口 |----|
13
口口口口 |①---|
口口口口 |----|
口①②口 |②---|
口口口口 |----|
14
口口口口 |①---|
①口口口 |----|
口②口口 |②---|
口口口口 |----|
15
口口口口 |①---|
口口口② |----|
口口①口 |②---|
口口口口 |----|
16
口①②口 |①---|
口口口口 |----|
口口口口 |②---|
口口口口 |----|
17
口口口口 |①---|
口口口口 |----|
口①①口 |----|
口口口口 |----|
18
口口口口 |①---|
②口口口 |----|
①口口口 |②---|
口口口口 |----|
19
口口口口 |①---|
口①口口 |----|
口②口口 |②---|
口口口口 |----|
20
口口口口 |①---|
口口②口 |----|
口口①口 |②---|
口口口口 |----|
21
口口口口 |①---|
口口口① |----|
口口口② |②---|
口口口口 |----|
22
口口口口 |①---|
口口口口 |----|
口口②口 |②---|
口①口口 |----|
23
口②②口 |①---|
口①①口 |----|
口口口口 |②---|
口口口口 |----|
24
口口口口 |①---|
口①②口 |----|
口口口口 |②---|
口口口口 |----|
25
口口口口 |①---|
口口口口 |----|
口①①口 |②---|
口②②口 |----|
26
口口口口 |①---|
口①①口 |----|
口②②口 |②---|
口口口口 |----|
27
口口口口 |①---|
①②③④ |②---|
口口口口 |③---|
口口口口 |④---|
28
口口口口 |①---|
②口口② |----|
口①①口 |②---|
口口口口 |----|
29
口口口口 |①---|
口①①口 |----|
口②②口 |②---|
口口口口 |----|
30
口口口口 |①---|
口①②口 |----|
口口口口 |②---|
口口口口 |----|
31
口口口口 |①---|
口口口口 |----|
口①①口 |②---|
口②②口 |----|
32
口口口口 |①---|
口①①口 |----|
②口口② |②---|
口口口口 |----|
33
口口口口 |①---|
②口口② |----|
口①①口 |②---|
口口口口 |----|
34
口口口口 |①---|
口口口口 |----|
口②②口 |②---|
口①①口 |----|
35
口口口口 |①---|
②②①① |----|
口口口口 |②---|
口口口口 |----|
36
口口口口 |①---|
②口口② |----|
口①①口 |②---|
口口口口 |----|
37
口口口口 |①---|
口①①口 |----|
②口口② |②---|
口口口口 |----|
38
口口口口 |①---|
①①②② |----|
口口口口 |②---|
口口口口 |----|
39
口口口口 |①---|
口口口口 |----|
口①①口 |②---|
口②②口 |----|
40
口口口口 |①---|
口①①口 |----|
②口口② |②---|
口口口口 |----|
41
口口口口 |①---|
口口口口 |----|
口①①口
口口口口

口口口口
②口口②
口③③口 |②---|
口口口口 |--③-|
42
口口②② |----|
③①口③ |①---|
口口口口 |②---|
口口口口 |--③-|
43
口口口口 |----|
口口口口 |--①-|
口②②口 |----|
口①①口 |--②-|
44
②②口口 |----|
③口①③ |①---|
口口口口 |②---|
口口口口 |--③-|
45
口口口口 |----|
口口口口 |--①-|
口②②口 |----|
口①①口 |--②-|
46
口口②② |----|
③①口③ |①---|
口口口口 |②---|
口口口口 |--③-|
47
口口口口 |----|
口口口口 |--①-|
口②②口 |----|
口①①口 |--②-|
48
口口口口 |----|
③口口③ |①---|
①口口① |②---|
②口口② |--③-|
49
口口口口 |----|
口口口口 |--①-|
口口口口 |----|
口①①口 |----|
50
口口②② |①---|
①①口口 |----|
口口口口 |②---|
口口口口 |----|
51
口口口口 |①---|
口口②② |----|
①①口口 |②---|
口口口口 |----|
52
口口口口 |①---|
口③③口 |----|
口口②② |②---|
①①口口 |--③-|
53
口口口口 |----|
口口口口 |--①-|
口①①口 |----|
口口口口 |----|
54
②②口口 |①---|
口口①① |----|
口口口口 |②---|
口口口口 |----|
55
口口口口 |①---|
②②口口 |----|
口口①① |②---|
口口口口 |----|
56
口口口口 |①---|
口③③口 |----|
②②口口 |②---|
口口①① |--③-|
57
口口口口 |----|
口口口口 |--①-|
口①①口 |----|
口口口口 |----|
58
口②②口 |①---|
③①口③ |----|
口口口口 |②---|
口口口口 |--③-|
59
口口口口 |--①-|
口口口口 |--②-|
①口口① |----|
②口口② |----|
60
口②②口 |①---|
③口①③ |----|
口口口口 |②---|
口口口口 |--③-|
61
口口口口 |--①-|
口口口口 |--②-|
①口口① |----|
②口口② |----|
62
口②②口 |①---|
③①口③ |----|
口口口口 |②---|
口口口口 |--③-|
63
口口口口 |--①-|
口口口口 |--②-|
①口口① |----|
②口口② |----|
64
口②②口 |①---|
③口①③ |----|
口口口口 |②---|
口口口口 |--③-|
65
口口口口 |--①-|
口口口口 |--②-|
①口口① |----|
②口口② |----|
66
口口口口 |----|
口口口口 |----|
口①①口 |----|
口口口口 |--①-|
67
口口②② |----|
③①口③ |①---|
口口口口 |②---|
口口口口 |--③-|
68
口口口口 |----|
口口口口 |--①-|
口②②口 |----|
口①①口 |--②-|
69
②②口口 |----|
③口①③ |①---|
口口口口 |②---|
口口口口 |--③-|
70
口口口口 |----|
口口口口 |--①-|
口②②口 |----|
口①①口 |--②-|
71
口口②② |----|
③①口③ |①---|
口口口口 |②---|
口口口口 |--③-|
72
口口口口 |----|
口口口口 |--①-|
口②②口 |----|
口①①口 |--②-|
73
口口口口 |----|
③口口③ |①---|
①口口① |②---|
②口口② |--③-|
74
口口口口 |----|
口口口口 |--①-|
口口口口 |----|
口①①口 |----|
75
口口②② |①---|
①①口口 |----|
口口口口 |②---|
口口口口 |----|
76
口口口口 |①---|
口口②② |----|
①①口口 |②---|
口口口口 |----|
77
口口口口 |①---|
口③③口 |----|
口口②② |②---|
①①口口 |--③-|
78
口口口口 |----|
口口口口 |--①-|
口①①口 |----|
口口口口 |----|
79
②②口口 |①---|
口口①① |----|
口口口口 |②---|
口口口口 |----|
80
口口口口 |①---|
②②口口 |----|
口口①① |②---|
口口口口 |----|
81
口口口口 |①---|
口③③口 |----|
②②口口 |②---|
口口①① |--③-|
82
口口口口 |----|
②口口② |--①-|
口①①口 |----|
口口口口 |②---|

不確定度: 0

最終更新:2014年12月12日 01:41