LoveLove DokiDoki
水戸ご当地アイドル(仮)

ADVANCED

Level: 7
BPM: 160
Notes: 511

1
口口口口 |----|
口③口口 |----|
口口②口 |--①-|
口①口口 |②-③-|
2
口口①② |①---|
口口①② |②---|
口口口口
口口口口

口口口口
口④④口
口③口口 |----|
口口口口 |③-④-|
3
口口口口 |----|
口口口口 |--①-|
口口口口 |----|
①②②① |②---|
4
②①口口 |①---|
口口口口 |②---|
②①口口
口口口口

口口口口
口④③口
口⑥⑤口 |③-④-|
口口口口 |⑤-⑥-|
5
口口口口 |----|
口④口口 |--①-|
口口③口 |--②-|
①②口① |③-④-|
6
口口①② |①---|
口口①② |②---|
口口口口
口口口口

口口口口
口④④口
口③口口 |----|
口口口口 |③-④-|
7
口口口口 |----|
口口口口 |--①-|
口口口口 |----|
①②②① |②---|
8
①口口① |①---|
②口口② |--②-|
口⑤⑤口 |--③-|
口④③口 |④-⑤-|
9
②②②② |--①-|
口①①口 |--②-|
口口口口 |----|
口口口口 |----|
10
口口口口 |--①-|
①⑦③⑤ |②-③-|
口②⑥④ |④-⑤-|
口口口口 |⑥-⑦-|
11
③③①① |①---|
口⑤⑤口 |②-③-|
口口口口 |--④-|
④④②② |⑤---|
12
口口口① |--①-|
②口口口 |--②-|
口口口口
口口口口

口口口⑤
口③④口
口口口口 |③-④-|
口口口口 |--⑤-|
13
口口口口 |----|
口①②口 |①-②-|
口③④口 |--③-|
口口口口 |④---|
14
①口口口 |--①-|
口口口② |--②-|
口口口口
口口口口

⑤口口口
口④③口
口口口口 |③-④-|
口口口口 |--⑤-|
15
口口口口 |----|
口②①口 |①-②-|
口④③口 |--③-|
口口口口 |④---|
16
口①①口 |--①-|
口口②口 |--②-|
口③口口 |③-④-|
⑤口④⑤ |--⑤-|
17
口口口口 |----|
口口②口 |①-②-|
口①口口 |--③-|
③口口③ |----|
18
口口口口 |--①-|
⑤③⑦① |②-③-|
④⑥②口 |④-⑤-|
口口口口 |⑥-⑦-|
19
②②①① |--①-|
口口③口 |--②-|
口⑤④口 |--③-|
口口口口 |④-⑤-|
20
口口口口 |--①-|
②口口③ |--②-|
④口口⑤ |③-④-|
⑥①①口 |⑤-⑥-|
21
口口口口 |----|
口②③口 |①-②-|
口④①口 |--③-|
口口⑤口 |④-⑤-|
22
口口口口 |--①-|
③口口④ |②-③-|
②⑦口⑤ |④-⑤-|
①口口⑥ |⑥-⑦-|
23
口②③口 |①---|
口口①口 |②-③-|
口口口口
口口口口

口口口口
口④⑤口
口口口口 |--④-|
口口口口 |⑤---|
24
①口口① |--①-|
②口口④ |--②-|
口③⑤口 |③-④-|
口⑥⑥口 |⑤-⑥-|
25
口口口口 |--①-|
口②②口 |--②-|
①口口① |----|
口口口口 |----|
26
口口口口 |--①-|
②④⑥口 |②-③-|
①③⑤⑦ |④-⑤-|
口口口口 |⑥-⑦-|
27
口②③口 |①---|
口④⑤① |②-③-|
口口口口 |--④-|
口口口口 |⑤---|
28
口口口① |--①-|
②口口口 |--②-|
口口口口
口口口口

口口口⑤
口③④口
口口口口 |③-④-|
口口口口 |--⑤-|
29
口口口口 |----|
口①②口 |①-②-|
口③④口 |--③-|
口口口口 |④---|
30
口口口⑥ |--①-|
①口口口 |②-③-|
②口口⑤ |④-⑤-|
③口口④ |--⑥-|
31
口口口口 |----|
口①②口 |①-②-|
口③④口 |--③-|
口口口口 |④---|
32
口口口① |--①-|
②口口口 |--②-|
口口口口
口口口口

口口口⑤
口③④口
口口口口 |③-④-|
口口口口 |--⑤-|
33
口口口口 |----|
口①②口 |①-②-|
口③③口 |--③-|
口口口口 |----|
34
①口口① |--①-|
口③②口 |--②-|
口⑤④口 |③-④-|
口口⑥口 |⑤-⑥-|
35
①口口② |--①-|
①口口② |--②-|
口口口口
口口口口

口口口口
⑤③④口
⑤③④口 |--③-|
口口口口 |④-⑤-|
36
口口口① |--①-|
口③④口 |--②-|
口②⑤口 |③-④-|
口⑥口口 |⑤-⑥-|
37
口②①口 |----|
口口③口 |①-②-|
口④口口 |--③-|
口口⑤口 |④-⑤-|
38
①口口口 |--①-|
⑤④③② |--②-|
⑥口口口 |③-④-|
口口口口 |⑤-⑥-|
39
口③②口 |①---|
口⑤④口 |②-③-|
口①口口 |--④-|
口口口口 |⑤---|
40
②口①① |--①-|
④口口③ |--②-|
⑥口口⑤ |③-④-|
口口口口 |⑤-⑥-|
41
④口口④ |①-②-|
口③③口 |--③-|
口③③口 |----|
②口口① |--④-|
42
口口③口 |--①-|
①口口② |②---|
①口口② |③---|
④③口④ |--④-|
43
④口口④ |--①-|
口②口口 |②-③-|
口口①口 |----|
口③③口 |--④-|
44
④③口④ |--①-|
②口口① |②---|
②口口① |③---|
口口③口 |--④-|
45
④口口④ |--①-|
口①口口 |②-③-|
口口②口 |----|
口③③口 |--④-|
46
口口③口 |--①-|
①口口② |②---|
①口④② |③---|
口③口口 |--④-|
47
口⑥⑦口 |①-②-|
⑤②①口 |③-④-|
口③口口 |--⑤-|
④口口④ |⑥-⑦-|
48
⑤口口⑤ |--①-|
④口②口 |②-③-|
口③口① |④---|
口口口口 |--⑤-|
49
口口口口 |--①-|
口①①口 |②-③-|
口②②口 |----|
口③③口 |----|
50
口口口④ |----|
口口③口 |----|
口②口口 |①-②-|
①口口口 |③-④-|
51
②②口口 |--①-|
口④③口 |--②-|
口口⑤口 |--③-|
口口①① |④-⑤-|
52
⑤⑤口口 |①---|
口口口② |----|
口④③口 |②-③-|
①①口口 |④-⑤-|
53
口口①① |--①-|
口口口口 |--②-|
口口口口 |----|
②②口口 |----|
54
③口口口 |----|
口①②口 |----|
口②①口 |①---|
口口口③ |②-③-|
55
口②②① |--①-|
口④③口 |--②-|
口口⑤口 |--③-|
①口口口 |④-⑤-|
56
口口⑤⑤ |①---|
②口口口 |----|
口③④口 |②-③-|
①①口口 |④-⑤-|
57
①①口口 |--①-|
口口口口 |--②-|
口口口口 |----|
②②②② |----|
58
口口口口 |①-②-|
口口口口 |③-④-|
口②①口
口④③口

⑦⑦⑤口
口口口⑤
口口⑥口 |⑤---|
口口口口 |⑥-⑦-|
59
口口口口 |--①-|
①①口口 |--②-|
口口口口
口口②②

口口口口
口③③口
口口口口 |----|
口口口口 |--③-|
60
口④⑥⑥ |--①-|
④口口口 |②-③-|
口⑤①口 |④---|
口②③口 |⑤-⑥-|
61
口口口口 |--①-|
口口①① |--②-|
口口口口
②②口口

口口口口
口③③口
口口口口 |----|
口口口口 |--③-|
62
⑥⑥④口 |--①-|
口口口④ |②-③-|
口①⑤口 |④---|
口③②口 |⑤-⑥-|
63
口口口口 |--①-|
①①口口 |--②-|
口口口口
口口②②

口口口口
口③③口
口口口口 |----|
口口口口 |--③-|
64
口④⑥⑥ |--①-|
④口口口 |②-③-|
口⑤①口 |④---|
口②③口 |⑤-⑥-|
65
口口口口 |--①-|
口口①① |--②-|
口口口口 |----|
②②口口 |----|
66
①口口① |----|
口口口口 |----|
口口口口 |----|
口口口口 |--①-|
67
口口③口 |--①-|
①口口② |②---|
①口口② |③---|
④③口④ |--④-|
68
④口口④ |--①-|
口②口口 |②-③-|
口口①口 |----|
口③③口 |--④-|
69
④③口④ |--①-|
②口口① |②---|
②口口① |③---|
口口③口 |--④-|
70
④口口④ |--①-|
口①口口 |②-③-|
口口②口 |----|
口③③口 |--④-|
71
口口③口 |--①-|
①口口② |②---|
①口④② |③---|
口③口口 |--④-|
72
口⑥⑦口 |①-②-|
⑤②①口 |③-④-|
口③口口 |--⑤-|
④口口④ |⑥-⑦-|
73
⑤口口⑤ |--①-|
④口②口 |②-③-|
口③口① |④---|
口口口口 |--⑤-|
74
口口口口 |--①-|
口①①口 |②-③-|
口②②口 |----|
口③③口 |----|
75
口口口④ |----|
口口③口 |----|
口②口口 |①-②-|
①口口口 |③-④-|
76
②②口口 |--①-|
口④③口 |--②-|
口口⑤口 |--③-|
口口①① |④-⑤-|
77
⑤⑤口口 |①---|
口口口② |----|
口④③口 |②-③-|
①①口口 |④-⑤-|
78
口口①① |--①-|
口口口口 |--②-|
口口口口 |----|
②②口口 |----|
79
③口口口 |----|
口①②口 |----|
口②①口 |①---|
口口口③ |②-③-|
80
口②②① |--①-|
口④③口 |--②-|
口口⑤口 |--③-|
①口口口 |④-⑤-|
81
口口⑤⑤ |①---|
②口口口 |----|
口③④口 |②-③-|
①①口口 |④-⑤-|
82
①①口口 |--①-|
④口口④ |--②-|
④③③④ |--③-|
②②②② |④---|

不確定度: 0

最終更新:2014年12月12日 01:41