LoveLove DokiDoki
水戸ご当地アイドル(仮)

EXTREME

Level: 8
BPM: 160
Notes: 693

1
口口口口 |----|
④口口③ |----|
口⑥⑤口 |--①②|
口②①口 |③④⑤⑥|
2
②②①① |①---|
口口口口 |②---|
口口口口
口口口口

口口⑥口
⑤⑥口口
口⑤口④ |③-④-|
③口口③ |⑤-⑥-|
3
②⑤口② |--①-|
口口⑤④ |②-③-|
③口④③ |--④-|
口口①口 |⑤---|
4
④⑤⑤② |①---|
①④口口 |②---|
口口③② |③-④-|
①⑥⑥③ |⑤-⑥-|
5
口口口口 |--①-|
⑦③③⑥ |②-③-|
②⑨⑧① |--④⑤|
①⑤④② |⑥⑦⑧⑨|
6
②②①① |①---|
口口口口 |②---|
口口口口
口口口口

口口⑥口
⑤⑥口口
口⑤口④ |③-④-|
③口口③ |⑤-⑥-|
7
②⑤口② |--①-|
口口⑤④ |②-③-|
③口④③ |--④-|
口口①口 |⑤---|
8
③口口① |①---|
口口口口 |②-③-|
口②口口
①口口③

口口口口
⑤⑥口④
⑥口口口 |--④-|
⑥口口口 |⑤-⑥-|
9
口口②口 |--①-|
口口①② |--②-|
⑤①口② |--③④|
口①④③ |⑤---|
10
口口口口 |--①-|
⑥②①⑤ |②-③-|
口④③口 |④-⑤-|
口口口⑦ |⑥-⑦-|
11
①口②② |①---|
口口口口 |②-③-|
口③口口
口③③口

⑤⑤口口
⑤⑤口④
⑤口④④ |--④-|
口口口④ |⑤---|
12
口口①⑤ |--①-|
口口口口 |--②-|
口②口口 |③-④-|
口④③口 |--⑤-|
13
口口口口 |----|
①口②口 |①-②-|
口④口③ |--③-|
口口口口 |④---|
14
口口①口 |--①-|
口②③口 |--②-|
口④口⑤ |③-④-|
口口口口 |--⑤-|
15
口口②口 |----|
口③口口 |①-②-|
①口④口 |--③-|
口口口口 |④---|
16
口口口口 |--①-|
口口④口 |--②-|
①③口② |③-④-|
口⑤⑤口 |--⑤-|
17
口口口口 |----|
②口口② |①-②-|
①口口① |--③-|
口③③口 |----|
18
口口口口 |--①-|
口③②⑦ |②-③-|
口①④口 |④-⑤-|
口⑤⑥口 |⑥-⑦-|
19
口口口口 |--①-|
①口④口 |--②-|
口③②口 |--③-|
口⑤口口 |④-⑤-|
20
①口口③ |--①-|
⑤①③口 |--②-|
口④②⑥ |③-④-|
④口口② |⑤-⑥-|
21
口②口① |----|
③口④口 |①-②-|
口⑤口口 |--③-|
口口口口 |④-⑤-|
22
④⑤⑥⑦ |--①-|
口口口口 |②-③-|
口口口口 |④-⑤-|
③②①口 |⑥-⑦-|
23
口口口口 |①---|
③④②⑤ |②-③-|
④③⑤② |--④-|
口①①口 |⑤---|
24
口①①口 |--①-|
口④口⑥ |--②-|
③口⑤口 |③-④-|
口②②口 |⑤-⑥-|
25
②口②⑤ |--①-|
口口口口 |--②-|
③④口口 |--③④|
口①口① |⑤---|
26
口口⑦口 |--①-|
④⑥口② |②-③-|
③口⑤① |④-⑤-|
口口口口 |⑥-⑦-|
27
③口口① |①---|
口口②口 |②-③-|
口②口口
①口口③

口口口⑤
口④口⑤
⑤口④口 |--④-|
⑤口口口 |⑤---|
28
⑤①①⑤ |--①-|
②口口口 |--②-|
③口口口 |③-④-|
④口口口 |--⑤-|
29
口口口口 |----|
①①③③ |①-②-|
④④②② |--③-|
口口口口 |④---|
30
①⑥⑥③ |--①-|
②口口④ |②-③-|
口⑤⑤口 |④-⑤-|
口口口口 |--⑥-|
31
口口口口 |----|
④口口① |①-②-|
口②口口 |--③-|
口口口③ |④---|
32
口①①口 |--①-|
③④④③ |--②-|
②口口② |③-④-|
口⑤⑤口 |--⑤-|
33
口②①口 |----|
口口口口 |①-②-|
口口口口 |--③-|
口③③口 |----|
34
①口①② |--①-|
①①①口 |--②-|
口①口口
口口口口

口④口口
口⑥口口
③口口口 |③-④-|
口口口⑤ |⑤-⑥-|
35
③口口① |--①-|
④③①口 |--②-|
⑤④口② |--③-|
口⑤②口 |④-⑤-|
36
⑤①①⑤ |--①-|
口③③口 |--②-|
口⑥⑥口 |③-④-|
②④④② |⑤-⑥-|
37
④⑤②口 |----|
口③口① |①-②-|
口口口口 |--③-|
口口口口 |④-⑤-|
38
口口①② |--①-|
口口③① |--②-|
⑥④口口 |③-④-|
⑤口口口 |⑤-⑥-|
39
①口⑤③ |①---|
口口口⑤ |②-③-|
口口口口 |--④-|
口口④② |⑤---|
40
口①口口 |--①-|
口口②口 |--②③|
⑦③④口 |④-⑤-|
⑤口口⑥ |⑥-⑦-|
41
⑤口③③ |①-②-|
②口口④ |--③-|
⑦口口① |④-⑤-|
⑦⑦口⑥ |⑥-⑦-|
42
③口②③ |--①-|
⑥①②② |②---|
⑥①①口 |③-④-|
口⑤④口 |⑤-⑥-|
43
口②②口 |--①-|
口③③口 |②-③-|
口口口①
口口口口

⑤口口④
口口口口
口口口⑥ |--④-|
口口⑥⑥ |⑤-⑥-|
44
③②口③ |--①-|
②②①⑥ |②---|
口①①⑥ |③-④-|
口④⑤口 |⑤-⑥-|
45
口口⑥⑥ |--①-|
口②③⑥ |②-③-|
①③②口 |--④-|
⑤口口④ |⑤-⑥-|
46
口④⑤口 |--①-|
⑥①①口 |②---|
②②①口 |③-④-|
③②口③ |⑤-⑥-|
47
口⑥⑤口 |①-②-|
口①⑦口 |③-④-|
口口③② |--⑤-|
口④④口 |⑥-⑦-|
48
⑤⑤④④ |--①-|
⑤口口口 |②-③-|
口③口口 |④---|
口①②口 |--⑤-|
49
口口口口 |--①-|
口①①口 |②-③-|
口①②② |----|
③口②③ |----|
50
口口口④ |①-②-|
⑧口③口 |③-④-|
口⑥⑦② |⑤-⑥-|
口口①⑤ |⑦-⑧-|
51
口口②② |--①-|
⑤口口④ |--②-|
口⑤④口 |--③-|
①①口③ |④-⑤-|
52
④口口口 |①-②-|
口③口口 |③-④-|
②口口口
口①口口

口⑥⑧⑧
⑥口⑤口
口口口⑤ |⑤-⑥-|
口⑦⑦口 |⑦-⑧-|
53
②②口口 |--①-|
口口口口 |--②-|
口①①口 |----|
口口口口 |----|
54
⑤⑤口④ |①-②-|
口⑥③口 |③-④-|
口口⑦② |⑤---|
口口①口 |⑥-⑦-|
55
口⑤②② |--①-|
⑤口口③ |--②-|
口口口④ |--③-|
①①④口 |④-⑤-|
56
④口口口 |①-②-|
口③口口 |③-④-|
②口口口
口①口口

口口⑨口
口口⑤⑨
口⑥⑦口 |⑤⑥⑦-|
⑧⑧口口 |⑧-⑨-|
57
④④口口 |--①②|
①②③口 |③-④-|
口⑤⑤口 |--⑤-|
⑨⑧⑦⑥ |⑥⑦⑧⑨|
58
口口口口 |①-②-|
②口口① |③-④-|
④口口③
口口口口

⑤口⑦⑤
口口口⑦
口⑥口口 |⑤---|
口口口口 |⑥-⑦-|
59
③①口③ |--①-|
①口口口 |--②-|
口口口口 |----|
②口口② |--③-|
60
口口口口 |--①-|
口③口口 |②-③-|
口口②口
口①口口

口④④口
口口口⑤
⑥口口口 |④---|
口⑥口口 |⑤-⑥-|
61
②口口② |--①-|
口口口口 |--②-|
口口口①
口口①口

口口口口
口口口口
口口口口 |----|
口③③口 |--③-|
62
④口⑥④ |--①-|
①口口⑥ |②-③-|
③⑤口② |④---|
口口口口 |⑤-⑥-|
63
③①口③ |--①-|
①口口口 |--②-|
口口口口 |----|
②口口② |--③-|
64
口口口口 |--①-|
口③口口 |②-③-|
口口②口
口①口口

口④④口
口口口⑤
⑥口口口 |④---|
口⑥口口 |⑤-⑥-|
65
②口口② |--①-|
口口④③ |--②-|
⑤⑤口① |--③④|
口口①口 |⑤---|
66
口口口口 |----|
口口口口 |----|
①口口口 |----|
①①口口 |--①-|
67
口口②口 |--①-|
口①②② |②---|
口①①口
口口口口

③口口③
口⑥口口
⑥口口口 |③-④-|
口⑤④口 |⑤-⑥-|
68
口②②口 |--①-|
口口口口 |②-③-|
口③③①
口口口口

⑤口口④
口口口口
口口口⑥ |--④-|
口口⑥⑥ |⑤-⑥-|
69
③②⑥③ |--①-|
②②①⑥ |②---|
口①①口 |③-④-|
口④⑤口 |⑤-⑥-|
70
②口⑥⑥ |--①-|
口口③⑥ |②-③-|
①口②口 |--④-|
⑤③口④ |⑤-⑥-|
71
口④⑤口 |--①-|
口①①⑥ |②---|
②②①⑥ |③-④-|
③②口③ |⑤-⑥-|
72
口⑤④口 |--①-|
口①口口 |②-③-|
口口②口 |--④-|
⑥③③⑥ |⑤-⑥-|
73
⑤⑤口④ |--①-|
⑤口口口 |②-③-|
口③口④ |④---|
口①②口 |--⑤-|
74
口口口口 |--①-|
口①①口 |②-③-|
口①②② |----|
③口②③ |----|
75
口口口④ |①-②-|
⑧口③口 |③-④-|
口⑥⑦② |⑤-⑥-|
口口①⑤ |⑦-⑧-|
76
口口②② |--①-|
⑤口口④ |--②-|
口⑤④口 |--③-|
①①口③ |④-⑤-|
77
④口口口 |①-②-|
口③口口 |③-④-|
②口口口
口①口口

口⑥⑧⑧
⑥口⑤口
口口口⑤ |⑤-⑥-|
口⑦⑦口 |⑦-⑧-|
78
②②口口 |--①-|
口口口口 |--②-|
口①①口 |----|
口口口口 |----|
79
⑤⑤口④ |①-②-|
口⑥③口 |③-④-|
口口⑦② |⑤---|
口口①口 |⑥-⑦-|
80
口⑤②② |--①-|
⑤口口③ |--②-|
口口口④ |--③-|
①①④口 |④-⑤-|
81
④口口口 |①-②-|
口③口口 |③-④-|
②口口口
口①口口

口口⑨口
口口⑤⑨
口⑥⑦口 |⑤⑥⑦-|
⑧⑧口口 |⑧-⑨-|
82
④④⑥⑤ |--①②|
①②③⑥ |③-④-|
⑥口口口 |--⑤-|
⑤⑥口口 |⑥---|

不確定度: 0

最終更新:2014年12月12日 01:40