MITOれて!いばらきっしゅだ~りん
水戸ご当地アイドル(仮)

BASIC

Level: 2
BPM: 167
Notes: 185

1
口口口口 |----|
口口口口 |----|
口口口口 |----|
口口口口 |----|
2
口口口口 |----|
口口口口 |----|
口口口口 |----|
口口口口 |----|
3
口①①口 |①---|
口口口口 |----|
口口口口 |----|
口口口口 |----|
4
口口口口 |①---|
口①①口 |----|
口②②口 |②---|
口口口口 |----|
5
口口口口 |①---|
口口口口 |----|
②口口② |②---|
口①①口 |----|
6
口口口口 |----|
口口口口 |----|
口口口口 |----|
口口口口 |----|
7
口口口口 |①---|
口口口口 |----|
口①口口 |②---|
口②口口 |----|
8
口口口口 |①---|
口口③口 |----|
口口②口 |②---|
口口①口 |③---|
9
②③口口 |①---|
口①口口 |②---|
口口口口 |③---|
口口口口 |----|
10
口口口口 |①---|
口口②③ |----|
口①口口 |②---|
口口口口 |③---|
11
口口②① |----|
口口口口 |①---|
口口口口 |②---|
口口口口 |----|
12
口口口口 |①---|
③②口口 |----|
口口①口 |②---|
口口口口 |③---|
13
①②口口 |----|
口口口口 |①---|
口口口口 |②---|
口口口口 |----|
14
口口口口 |①---|
口口②③ |----|
口①口口 |②---|
口口口口 |③---|
15
口口②① |----|
口③③口 |①---|
口口口口 |②---|
口口口口 |--③-|
16
口口口口 |----|
口口口口 |----|
口口口口 |----|
口口口口 |----|
17
口口口口 |①---|
口口口口 |----|
①②口口 |②---|
口口口口 |----|
18
口口口口 |①---|
口①②口 |----|
口口③口 |②---|
口口口口 |③---|
19
口口口口 |①---|
口口口口 |----|
口口口口 |----|
口口①口 |----|
20
口口口口 |①---|
口口口口 |----|
①口口① |----|
口口口口 |----|
21
口口口口 |①---|
口口口口 |----|
口口②① |②---|
口口口口 |----|
22
③口口口 |①---|
口②①口 |②---|
口口口口 |③---|
口口口口 |----|
23
口口口口 |①---|
①口口口 |----|
②口口口 |②---|
口口口口 |----|
24
口口口口 |①---|
口口口口 |----|
口口口口 |----|
①口口口 |----|
25
口口口口 |①---|
口口口口 |----|
口口②① |②---|
口口口口 |----|
26
口口口口 |①---|
口②①口 |----|
口③口口 |②---|
口口口口 |③---|
27
口口口口 |①---|
口口口口 |----|
②口口② |②---|
口①口口 |----|
28
口口口口 |①---|
①口口① |----|
口口口口 |----|
口口口口 |----|
29
口口口口 |①---|
口①口口 |----|
口②口口 |②---|
口口口口 |----|
30
口口口③ |①---|
口①②口 |②---|
口口口口 |③---|
口口口口 |----|
31
口口口口 |①---|
口口口① |----|
口口口② |②---|
口口口口 |----|
32
口口口口 |----|
口口③口 |①---|
口②口口 |②---|
口口①口 |③---|
33
口①②口 |①---|
口口口口 |----|
口口口口 |②---|
口口口口 |----|
34
③口口③ |①---|
②①口② |----|
口口口口 |②---|
口口口口 |③---|
35
口口口口 |----|
口口口口 |----|
口口①口 |①---|
口口口口 |----|
36
口口口口 |①---|
口口口口 |----|
②口口② |②---|
③①口③ |③---|
37
口口口口 |----|
口口口口 |----|
口口①口 |①---|
口口口口 |----|
38
口口口口 |①---|
口②口口 |----|
口①口口 |②---|
口口口口 |----|
39
①口口口 |①---|
口②③口 |----|
口口口口 |②---|
口口口口 |③---|
40
口口口口 |①---|
口口口① |----|
口口口口 |----|
口口口口 |----|
41
口①口口 |----|
口口口口 |----|
口口口口 |①---|
口口口口 |----|
42
③口口③ |①---|
②口①② |----|
口口口口 |②---|
口口口口 |③---|
43
口口口口 |----|
口口口口 |----|
口①口口 |①---|
口口口口 |----|
44
口口口口 |①---|
口口口口 |----|
②口口② |②---|
口口①口 |----|
45
口口口口 |①---|
口口口口 |----|
口②①口 |②---|
口口口口 |----|
46
口口④口 |①---|
口口③口 |②---|
口口②口 |③---|
口口①口 |④---|
47
口口②① |①---|
口口口口 |----|
口口口口 |②---|
口口口口 |----|
48
口口口口 |①---|
①口口② |----|
口口口口 |②---|
口口口口 |----|
49
口①①口 |①---|
口口口口 |----|
口②口口 |②---|
口口口口 |----|
50
口口口口 |①---|
③②②③ |----|
口口①口 |②---|
口口口口 |③---|
51
口口口口 |----|
口②口口 |①---|
口①口口 |②---|
口口口口 |----|
52
①口口① |①---|
口口口口 |----|
口口口口 |----|
口口口口 |----|
53
②①①② |①---|
口口口口 |----|
口口口口 |②---|
口口口口 |----|
54
口口口口 |①---|
口口①口 |----|
口②口口 |②---|
口口口口 |----|
55
口口口口 |①---|
口口口口 |----|
②口口② |②---|
口口①口 |----|
56
口口口口 |----|
口口口口 |----|
口口口口 |----|
口口口口 |----|
57
口口口口 |①---|
②口口口 |----|
口①口口 |②---|
口口口口 |----|
58
口①口口 |①---|
口③②口 |----|
口口口口 |②---|
口口口口 |③---|
59
口口口口 |①---|
②口口② |----|
口口①口 |②---|
口口口口 |----|
60
口口口口 |----|
口口口口 |----|
口①②口 |①---|
口口口口 |②---|
61
口口口口 |①---|
口口①口 |----|
口②口口 |②---|
口口口口 |----|
62
口口口口 |①---|
口①②口 |②---|
口④③口 |③---|
口口口口 |④---|
63
口口口口 |①---|
口②①口 |----|
口口口口 |②---|
口口口口 |----|
64
口口口口 |①---|
口口口口 |----|
口①口口 |----|
口口口口 |----|
65
口口口口 |①---|
口口口口 |----|
①口口① |----|
口口口口 |----|
66
口口口口 |①---|
口①①口 |----|
口②②口 |②---|
口③③口 |③---|
67
②③口口 |①---|
口口口口 |②---|
①口口口 |③---|
口口口口 |----|
68
口口口口 |①---|
口口②③ |----|
口①口口 |②---|
口口口口 |③---|
69
口口②① |----|
口口口口 |①---|
口口口口 |②---|
口口口口 |----|
70
口口口口 |①---|
③②口口 |----|
口口①口 |②---|
口口口口 |③---|
71
①②口口 |----|
口口口口 |①---|
口口口口 |②---|
口口口口 |----|
72
口口口口 |①---|
口口②③ |----|
口①口口 |②---|
口口口口 |③---|
73
口口②① |----|
口③③口 |①---|
口口口口 |②---|
口口口口 |--③-|
74
口口口口 |----|
口口口口 |----|
口口口口 |----|
口口口口 |----|
75
③口口③ |①---|
②口口② |--②-|
①口口① |----|
口口口口 |--③-|

不確定度: 0

最終更新:2014年12月12日 01:38