concon
S-C-U

EXTREME

Level: 10
BPM: 190
Notes: 812

1
口口口口 |----|
口口口口 |----|
口口口口 |----|
口口口口 |----|
2
④⑦⑦口 |①-②-|
口⑥①③ |③-④-|
②⑤④② |--⑤-|
口①⑤口 |⑥-⑦-|
3
④⑧⑦口 |--①②|
口口①③ |③-④-|
口⑥⑤② |⑤-⑥-|
④口⑥⑦ |⑦-⑧-|
4
④⑥⑥口 |①-②-|
口③①③ |③-④-|
②⑤④② |--⑤-|
口①⑤口 |--⑥-|
5
⑤⑨⑧口 |①②③-|
②口③④ |④-⑤-|
①⑦⑥口 |⑥-⑦-|
⑤⑨⑧⑦ |⑧-⑨-|
6
⑥口⑦口 |--①②|
①⑤③口 |③-④-|
②口口④ |⑤-⑥-|
口口口口 |--⑦-|
7
⑥⑤口⑥ |--①-|
口④口口 |②-③-|
⑥①③⑥ |④-⑤-|
口口②口 |--⑥-|
8
口口⑤口 |--①②|
④口③口 |③-④-|
口①⑦口 |⑤-⑥-|
口②⑧⑥ |--⑦⑧|
9
口④口口 |①-②-|
口①口② |③-④-|
口③口口
口口口口

口口⑤口
⑥⑦口口
口口口口 |--⑤-|
口口口口 |⑥-⑦-|
10
④⑦⑦口 |①-②-|
口⑥①③ |③-④-|
②⑤④② |--⑤-|
口①⑤口 |⑥-⑦-|
11
④⑧⑦口 |--①②|
口口①③ |③-④-|
口⑥⑤② |⑤-⑥-|
④口⑥⑦ |⑦-⑧-|
12
④⑥⑥口 |①-②-|
口③①③ |③-④-|
②⑤④② |--⑤-|
口①⑤口 |--⑥-|
13
⑤⑨⑧口 |①②③-|
②口③④ |④-⑤-|
①⑦⑥口 |⑥-⑦-|
⑤⑨⑧⑦ |⑧-⑨-|
14
⑥口⑦口 |--①②|
①⑤③口 |③-④-|
②口口④ |⑤-⑥-|
口口口口 |--⑦-|
15
⑥⑤口⑥ |--①-|
口④口口 |②-③-|
⑥①③⑥ |④-⑤-|
口口②口 |--⑥-|
16
口口⑤口 |--①②|
④口③口 |③-④-|
口①⑦口 |⑤-⑥-|
口②⑧⑥ |--⑦⑧|
17
口口口口 |①-②-|
口①口② |③-④-|
口③口④
口口口口

⑤⑦口⑥
口⑦口口
口口口口 |--⑤-|
口口口口 |⑥-⑦-|
18
口口口口 |①---|
①⑤口口 |②-③-|
③口口口 |--④-|
②④口口 |--⑤-|
19
①口④口 |--①-|
②口口口 |②-③-|
③口口口 |--④-|
口⑤口口 |--⑤-|
20
②③口口 |①---|
④⑤口口 |②-③-|
⑥口口口 |--④-|
①口口口 |⑤-⑥-|
21
口②③口 |①---|
口口口口 |②-③-|
口①口口 |--④-|
⑤④口口 |⑤---|
22
口口⑥口 |①-②-|
口口①③ |③-④-|
口口④② |--⑤-|
口口⑤口 |--⑥-|
23
③⑦⑥口 |--①-|
口口①② |②-③-|
口⑤④口 |④-⑤-|
口口口口 |⑥-⑦-|
24
口口⑥口 |①-②-|
口口①③ |③-④-|
口口④② |--⑤-|
口口⑤口 |--⑥-|
25
③⑦⑥口 |--①-|
口⑥①② |②-③-|
口⑤④口 |④-⑤-|
口④口口 |⑥-⑦-|
26
口口口口 |①---|
①⑦口口 |②-③-|
③口④① |④-⑤-|
②⑤⑥② |⑥-⑦-|
27
②⑥口口 |①-②-|
③口口口 |③-④-|
④口⑤① |⑤-⑥-|
口⑧⑦③ |⑦-⑧-|
28
口口②口 |①---|
口口口口 |②---|
口①口①
口口口②

口口口口
③④口口
⑤⑥③口 |③-④-|
口口⑤口 |⑤-⑥-|
29
②③④口 |①-②-|
口口口口 |③-④-|
⑥口⑤① |⑤-⑥-|
口⑦⑦③ |⑦---|
30
口⑦⑧口 |①-②-|
⑤口①③ |③-④-|
口③④② |⑤-⑥-|
①口⑥口 |⑦-⑧-|
31
④⑧⑦口 |①-②-|
口口②③ |③-④-|
口⑥⑤口 |⑤-⑥-|
①③⑤⑦ |⑦-⑧-|
32
⑦口口⑥ |①-②-|
口口①③ |③-④-|
口口④② |--⑤-|
口口⑤口 |⑥-⑦-|
33
口口④⑦ |①-②-|
口②口口 |③-④-|
口⑥⑥③ |⑤-⑥-|
①⑤⑤口 |--⑦-|
34
口口口口 |①---|
①口①口 |--②-|
②口口口
口口口①

口口⑥口
口口口④
口⑤口口 |③-④-|
③④③⑥ |⑤-⑥-|
35
口⑥口口 |①-②-|
②口④口 |--③-|
⑤口⑦① |④-⑤-|
口⑤③口 |⑥-⑦-|
36
口口⑥① |①---|
口②口口 |--②-|
口⑤口口 |③-④-|
①③③④ |⑤-⑥-|
37
口⑥口口 |①-②-|
口口④口 |--③-|
⑤口⑦① |④-⑤-|
②③③口 |⑥-⑦-|
38
④⑦②口 |①-②-|
口口口口 |③-④-|
⑥③⑧① |⑤-⑥-|
⑧⑤⑥口 |⑦-⑧-|
39
⑦口⑤① |①-②-|
口口②② |--③-|
口⑥口④ |④-⑤-|
口⑤口③ |⑥-⑦-|
40
口②⑧④ |①-②-|
口口口口 |③-④-|
①口③⑦ |⑤-⑥-|
⑤⑥①⑥ |⑦-⑧-|
41
②⑤口⑦ |①-②-|
口口口口 |--③-|
④①⑥口 |④-⑤-|
③⑤②⑦ |⑥-⑦-|
42
口⑥③口 |①---|
①①①① |--②-|
⑤②口口 |③-④-|
④③①⑥ |⑤-⑥-|
43
口口⑥口 |①-②-|
口④口口 |--③-|
口⑦①⑤ |④-⑤-|
⑤③②口 |⑥-⑦-|
44
①⑥口口 |①---|
口口③口 |--②-|
⑤口口口 |③-④-|
④③②① |⑤-⑥-|
45
口口⑥口 |①-②-|
口④⑦口 |--③-|
口⑦①⑤ |④-⑤-|
口③口② |⑥-⑦-|
46
①口口② |①-②-|
口口口④ |③-④-|
②口①口
③④③口

⑦口⑥口
⑤口⑦口
口⑥口⑤ |--⑤-|
口口口口 |⑥-⑦-|
47
口①口② |①-②-|
口②口口 |--③-|
口口口口
③口③①

口⑦⑤口
口口口⑥
⑥⑤④口 |④-⑤-|
口④口口 |⑥-⑦-|
48
④⑧⑨口 |①-②-|
①①②口 |③-④-|
⑥⑦⑦② |⑤-⑥-|
⑥⑤④③ |⑦-⑧⑨|
49
⑥口口① |①②③④|
⑦⑤⑩② |⑤-⑥⑦|
⑧⑪口③ |⑧⑨⑩-|
⑨口口④ |--⑪-|
50
口⑥③⑧ |①-②③|
⑨②⑦④ |④-⑤-|
口口①⑩ |⑥⑦⑧-|
口⑤口口 |⑨-⑩-|
51
口④口④ |①-②-|
口②口口 |--③-|
②⑥①⑤ |--④-|
③口③① |⑤-⑥-|
52
口⑥③⑧ |①-②③|
⑨②⑦④ |④-⑤-|
口口①⑩ |⑥⑦⑧-|
口⑤口口 |⑨-⑩-|
53
口④口④ |①-②-|
口②口口 |--③-|
②⑥①⑤ |--④-|
③口③① |⑤-⑥-|
54
口⑥口⑥ |①-②-|
口②口④ |③-④-|
①口③口 |--⑤-|
⑤口⑤口 |--⑥-|
55
⑧口⑦口 |--①-|
口①口② |②-③④|
⑥③④⑤ |⑤-⑥-|
口②口口 |⑦-⑧-|
56
⑤③⑤③ |①-②-|
①口①口 |--③-|
口⑥⑦口 |--④-|
④②④② |⑤-⑥⑦|
57
⑩口口⑨ |①--②③④|
②③④⑤ |⑤-⑥-|
⑧⑩口① |⑦-⑧-|
口口⑦⑥ |⑨-⑩-|
58
口⑥③⑧ |①-②③|
⑨②⑦④ |④-⑤-|
口口①⑩ |⑥⑦⑧-|
口⑤口口 |⑨-⑩-|
59
口④口④ |①-②-|
⑤②口口 |--③-|
②口①口 |--④-|
③⑥③① |⑤-⑥-|
60
口口③⑩ |①-②③|
口②⑦④ |④-⑤-|
口⑧⑨⑥ |⑥⑦⑧-|
⑤口口① |⑨-⑩-|
61
①②口⑥ |①--②|
③④口⑤ |--③-|
⑤④口③ |-④--|
⑥②口① |⑤-⑥-|
62
②③口口 |①---|
口口口⑤ |②-③-|
⑤口①口 |--④-|
口④④① |--⑤-|
63
口口③口 |--①-|
①④口⑧ |②-③④|
口口⑤② |⑤-⑥-|
口⑥口⑦ |⑦-⑧-|
64
⑤①⑦① |①-②-|
②⑥②口 |③-④-|
⑤③⑦③ |--⑤-|
④⑥④口 |⑥-⑦-|
65
口②口口 |①--②③④|
③口口① |⑤-⑥-|
口④口口
⑤口⑥①

口口口⑦
口口⑧口
口口口⑨ |⑦-⑧-|
口口口⑩ |⑨-⑩-|
66
①口②口 |①-②-|
③口口④ |③-④-|
⑤⑩⑨⑧ |⑤-⑥⑦|
⑤⑦⑥口 |-⑧⑨⑩|
67
①②③④ |①②③④|
⑧⑦⑥⑤ |⑤⑥⑦⑧|
⑨口口口 |--⑨-|
⑬⑫⑪⑩ |⑩⑪⑫⑬|
68
②口①口 |①-②-|
口口口口 |③-④-|
口④③口
口口口口

口⑧⑨⑩
口口口口
口口口⑤ |⑤-⑥⑦|
口口⑦⑥ |-⑧⑨⑩|
69
口口口⑪ |①②③④|
④③②① |⑤⑥⑦⑧|
⑤⑥⑦⑧ |--⑨-|
⑨⑩口口 |⑩-⑪-|
70
①②③口 |①②③-|
⑤⑥⑦口 |④-⑤⑥|
⑨⑩⑪口 |⑦-⑧-|
口口⑧④ |⑨⑩⑪-|
71
②③④① |①-②③|
⑥⑦⑧⑨ |④-⑤-|
口口口⑤ |⑥⑦⑧⑨|
⑩⑪⑫⑬ |⑩⑪⑫⑬|
72
口④③② |①-②③|
⑤口口口 |④-⑤-|
①⑧⑦⑥ |⑥⑦⑧-|
⑨⑩⑪⑫ |⑨⑩⑪⑫|
73
④③②① |①②③④|
⑧⑦⑥⑤ |⑤⑥⑦⑧|
⑨⑩⑪⑫ |⑨⑩⑪⑫|
⑬⑭⑮⑯ |⑬⑭⑮⑯|
74
②口口① |①-②-|
⑤④③口 |③-④-|
⑩⑨⑧口 |⑤-⑥⑦|
⑥⑦口口 |-⑧⑨⑩|
75
④③②① |①②③④|
⑧⑦⑥⑤ |⑤⑥⑦⑧|
口口口⑨ |--⑨-|
⑬⑫⑪⑩ |⑩⑪⑫⑬|
76
④⑦⑥③ |①-②-|
⑩⑨⑧⑤ |③-④-|
口②①口 |⑤-⑥⑦|
口口口口 |-⑧⑨⑩|
77
口口⑪口 |①②③④|
口口⑩⑨ |⑤⑥⑦⑧|
④③②① |--⑨-|
⑧⑦⑥⑤ |⑩-⑪-|
78
⑤①口口 |①②③-|
⑥②口口 |④-⑤⑥|
⑦③口⑧ |⑦-⑧-|
⑨⑩⑪④ |⑨⑩⑪-|
79
⑬⑥②口 |①-②③|
⑦⑫③① |④-⑤-|
⑪⑧④口 |⑥⑦⑧⑨|
⑨⑩口⑤ |⑩⑪⑫⑬|
80
⑧⑤③② |①-②-|
⑤⑧②③ |③-④-|
⑦⑥④① |⑤-⑥-|
⑥⑦①④ |⑦-⑧-|
81
⑯⑨⑧① |①②③④|
⑩⑮②⑦ |⑤⑥⑦⑧|
⑭⑪⑥③ |⑨⑩⑪⑫|
⑫⑬④⑤ |⑬⑭⑮⑯|
82
口口⑥口 |①-②-|
口口①③ |③-④-|
口口④② |--⑤-|
口口⑤口 |--⑥-|
83
口口口口 |--①-|
口口①② |②---|
口口口口 |----|
口口口口 |----|


不确定度: 0

タグ:

+ タグ編集
  • タグ:

このサイトはreCAPTCHAによって保護されており、Googleの プライバシーポリシー利用規約 が適用されます。

最終更新:2012年11月10日 13:42