瞬間 I LOVE YOU
H&A

BASIC

Level: 2
BPM: 167
Notes: 159

1
口口口口 |----|
口口口口 |----|
口口口口 |----|
口口口口 |----|
2
口口口④ |①---|
口口③口 |②---|
口②口口 |③---|
①口口口 |④---|
3
口口口口 |①---|
口口口口 |②---|
②①①② |----|
口口口口 |----|
4
口口口口 |①---|
①口口口 |----|
口口口口 |----|
口口口口 |----|
5
口口口口 |①---|
口口①口 |----|
口口口口 |----|
口口口口 |----|
6
口口口口 |①---|
口口口口 |----|
①口口口 |----|
口口口口 |----|
7
口口口口 |①---|
口口口口 |----|
口口①口 |----|
口口口口 |----|
8
口口口口 |①---|
口①口口 |----|
口口口口 |----|
口口口口 |----|
9
口口口口 |①---|
口口口① |----|
口口口口 |----|
口口口口 |----|
10
口口口口 |①---|
口口口口 |----|
口②②口 |②---|
口①①口 |----|
11
口口口口 |①---|
口口口口 |----|
①口口① |②---|
②口口② |----|
12
口口口口 |①---|
口口口口 |----|
口①口口 |----|
口口口口 |----|
13
口①口口 |①---|
口口口口 |----|
口口口口 |----|
口口口口 |----|
14
口口口口 |①---|
口口口口 |----|
口口①口 |----|
口口口口 |----|
15
口口①口 |①---|
口口口口 |----|
口口口口 |----|
口口口口 |----|
16
口口口口 |①---|
口口口口 |----|
口口口口 |----|
口①口口 |----|
17
口口口口 |①---|
口①口口 |----|
口口口口 |----|
口口口口 |----|
18
口口口口 |①---|
口口口口 |----|
口②②口 |②---|
口①①口 |----|
19
口口口口 |①---|
口口口口 |----|
①口口① |②---|
②口口② |----|
20
口口口口 |①---|
口口口口 |----|
①②口口 |②---|
口口口口 |----|
21
口口口口 |①---|
口口口口 |----|
口口①口 |----|
口口口口 |----|
22
口口口口 |①---|
口①②口 |----|
口口口口 |②---|
口口口口 |----|
23
口口口口 |①---|
口口口① |----|
口口口口 |----|
口口口口 |----|
24
口口口口 |①---|
口口口口 |----|
口②口口 |②---|
口①口口 |----|
25
口②口口 |①---|
口①口口 |----|
口口口口 |②---|
口口口口 |----|
26
口口口口 |①---|
口口①口 |----|
口口②口 |②---|
口口口口 |----|
27
口口口口 |①---|
口口口口 |----|
口口口口 |----|
口口①口 |----|
28
口口口口 |----|
口口口口 |----|
口口口口 |----|
口口口口 |----|
29
①②口口 |①---|
③④口口 |②---|
口口口口 |③---|
口口口口 |④---|
30
口口口口 |①---|
口口口口 |----|
①口口① |----|
口口口口 |----|
31
口口①② |①---|
口口③④ |②---|
口口口口 |③---|
口口口口 |④---|
32
口口口口 |①---|
口口口口 |----|
①口口① |----|
口口口口 |----|
33
口口口口 |①---|
口口口口 |②---|
①③②④ |③---|
口口口口 |④---|
34
口口口口 |①---|
③①④② |②---|
口口口口 |③---|
口口口口 |④---|
35
口口口口 |①---|
口口口口 |----|
②口口② |②---|
①口口① |----|
36
口口口口 |①---|
①口口① |----|
口口口口 |----|
口口口口 |----|
37
口口口口 |①---|
①口口口 |----|
口②口口 |②---|
口口口口 |----|
38
口口口口 |①---|
口口口口 |----|
口口口口 |----|
口口①口 |----|
39
口口口口 |①---|
口①口口 |----|
口口②口 |②---|
口口口口 |----|
40
口口口口 |①---|
口口口口 |----|
口口口口 |----|
口口口① |----|
41
口口口口 |①---|
口口口口 |----|
口口②① |②---|
口口口口 |----|
42
口口口口 |①---|
口口口口 |----|
①②口口 |②---|
口口口口 |----|
43
口①①口 |①---|
口②②口 |----|
口口口口 |②---|
口口口口 |----|
44
口口口口 |①---|
口口口口 |----|
口①①口 |----|
口口口口 |----|
45
①②口口 |①---|
③④口口 |②---|
口口口口 |③---|
口口口口 |④---|
46
口口口口 |①---|
口口口口 |----|
①口口① |----|
口口口口 |----|
47
口口①② |①---|
口口③④ |②---|
口口口口 |③---|
口口口口 |④---|
48
口口口口 |①---|
口口口口 |----|
①口口① |----|
口口口口 |----|
49
口口口口 |①---|
口口口口 |②---|
①③②④ |③---|
口口口口 |④---|
50
口口口口 |①---|
①③②④ |②---|
口口口口 |③---|
口口口口 |④---|
51
口口口口 |①---|
口口口口 |----|
②口口② |②---|
①口口① |----|
52
口口口口 |①---|
①口口① |----|
口口口口 |----|
口口口口 |----|
53
①口口口 |①---|
口②口口 |----|
口口口口 |②---|
口口口口 |----|
54
口口口口 |①---|
口口口口 |----|
口口①口 |----|
口口口口 |----|
55
口①口口 |①---|
口口②口 |----|
口口口口 |②---|
口口口口 |----|
56
口口口口 |①---|
口口口口 |----|
口口口① |----|
口口口口 |----|
57
口口口口 |①---|
口①②口 |----|
口口口口 |②---|
口口口口 |----|
58
口口口口 |①---|
②口口② |----|
①口口① |②---|
口口口口 |----|
59
口口口口 |①---|
口①①口 |----|
口口口口 |----|
口口口口 |----|
60
①口口① |①---|
②口口② |----|
口口口口 |②---|
口口口口 |----|
61
口口口口 |①---|
口口口口 |----|
口①①口 |----|
口口口口 |----|
62
口口口口 |----|
口口口口 |----|
口口口口 |----|
口口口口 |----|
63
口口口口 |①---|
①口口口 |----|
口②口口 |②---|
口口口口 |----|
64
口口口口 |①---|
口口①口 |----|
口口口② |②---|
口口口口 |----|
65
口口口口 |①---|
口口口① |----|
口口②口 |②---|
口口口口 |----|
66
口口口口 |①---|
口①口口 |----|
②口口口 |②---|
口口口口 |----|
67
口口口口 |①---|
口口口口 |----|
口口②口 |②---|
口①口口 |----|
68
口口口口 |①---|
口①口口 |----|
口口②口 |②---|
口口口口 |----|
69
口口口④ |①---|
口口③口 |②---|
口②口口 |③---|
①口口口 |④---|
70
③口口③ |①---|
口口口口 |②---|
口①①口 |③---|
②口口② |----|

不確定度: 0

最終更新:2014年12月12日 01:35