瞬間 I LOVE YOU
H&A

ADVANCED

Level: 5
BPM: 167
Notes: 296

1
口口口口 |----|
口口口口 |----|
口口口口 |----|
口口口口 |----|
2
口口口口 |①-②-|
口口口口 |③-④-|
⑤⑥⑦⑧ |⑤-⑥-|
①②③④ |⑦-⑧-|
3
③口口③ |①-②-|
①②②① |③---|
口口口口 |----|
口口口口 |----|
4
口口口口 |①---|
口④口口 |②---|
①②③口 |③---|
口口口口 |--④-|
5
口口口口 |----|
口口口口 |①---|
口②②口 |②---|
口口①口 |----|
6
口口口口 |①---|
①②③口 |②---|
口口口口 |③---|
口④口口 |--④-|
7
口口口口 |----|
口口①口 |①---|
口②②口 |②---|
口口口口 |----|
8
口口口口 |①---|
口④口口 |②---|
①②③口 |③---|
口口口口 |--④-|
9
口口口口 |----|
口口口口 |①---|
口②②口 |②---|
口口①口 |----|
10
①口口① |①---|
口③③口 |----|
②口口② |②---|
口口口口 |--③-|
11
口口口口 |----|
口口口口 |①---|
口①①口 |②---|
口②②口 |----|
12
口口口口 |①---|
口口④口 |②---|
口③②① |③---|
口口口口 |--④-|
13
口口口口 |----|
口口口口 |①---|
口②②口 |②---|
口①口口 |----|
14
口口口口 |①---|
口③②① |②---|
口口口口 |③---|
口口④口 |--④-|
15
口口口口 |----|
口①口口 |①---|
口②②口 |②---|
口口口口 |----|
16
口口口口 |①---|
口口④口 |②---|
口③②① |③---|
口口口口 |--④-|
17
口口口口 |----|
口口口口 |①---|
口②②口 |②---|
口①口口 |----|
18
①口口① |①---|
口③③口 |----|
②口口② |②---|
口口口口 |--③-|
19
口口口口 |----|
口口口口 |①---|
口①①口 |②---|
口②②口 |----|
20
口口口口 |①---|
①①口口 |②---|
②②口口 |③---|
③③口口 |----|
21
口①①口 |①---|
口口口口 |----|
口口口口 |----|
口口口口 |----|
22
口口口口 |①---|
口口①① |②---|
口口②② |③---|
口口③③ |----|
23
口①①口 |①---|
口口口口 |----|
口口口口 |----|
口口口口 |----|
24
口①口口 |①---|
口口②口 |②---|
口③口④ |③---|
口口口口 |--④-|
25
口口口口 |----|
①口口口 |①---|
口②口口 |②---|
口口③口 |③---|
26
④口口④ |①---|
口③口口 |②---|
口口②口 |③---|
口①口口 |--④-|
27
口口口口 |----|
口口口口 |----|
口口口口 |----|
口口口口 |----|
28
口口口口 |----|
口口③口 |①---|
口②口口 |②---|
①口口口 |③---|
29
①①口④ |①---|
③口⑤口 |②---|
口⑤口④ |③-④-|
③口②② |--⑤-|
30
口口口口 |----|
口口口口 |----|
口口口口 |----|
口口口口 |----|
31
①①口④ |①---|
③口⑤口 |②---|
口⑤口④ |③-④-|
③口②② |--⑤-|
32
口口口口 |----|
口口口口 |----|
口口口口 |----|
口口口口 |----|
33
①⑤口② |①---|
口③④口 |②---|
口口口口 |③-④-|
口口口口 |--⑤-|
34
口口②口 |----|
口口口口 |①---|
口①③口 |②---|
口口口口 |③---|
35
口口口口 |①---|
⑤口口⑤ |②---|
①口口② |③-④-|
口③④口 |--⑤-|
36
口口口口 |----|
口口口口 |----|
口口口口 |----|
口口口口 |----|
37
①口①口 |①---|
口③口③ |--②-|
②口②口 |----|
口口口口 |③---|
38
口口口口 |①---|
口口口口 |----|
口口口口 |----|
口①口① |----|
39
口①口① |①---|
③口③口 |--②-|
口②口② |----|
口口口口 |③---|
40
口口口口 |①---|
口口口口 |----|
口口口口 |----|
①口①口 |----|
41
①口口口 |①---|
口口口口 |②---|
口口口口
口口口②

⑤口口口
口③口口
口口④口 |③-④-|
口口口口 |--⑤-|
42
口口口口 |----|
①口口口 |①---|
口②口口 |②---|
口口③口 |③---|
43
①口口① |①---|
②口口② |--②-|
③口口③ |----|
口口口口 |③---|
44
口口口口 |----|
口③口口 |①---|
口口②口 |②---|
口口口① |③---|
45
④口①① |①---|
口⑤口③ |②---|
④口⑤口 |③-④-|
②②口③ |--⑤-|
46
口口口口 |----|
口口口口 |----|
口口口口 |----|
口口口口 |----|
47
④口①① |①---|
口⑤口③ |②---|
④口⑤口 |③-④-|
②②口③ |--⑤-|
48
口口口口 |----|
口口口口 |----|
口口口口 |----|
口口口口 |----|
49
②口⑤① |①---|
口④③口 |②---|
口口口口 |③-④-|
口口口口 |--⑤-|
50
口②口口 |----|
口口口口 |①---|
口③①口 |②---|
口口口口 |③---|
51
口口口口 |①---|
⑤口口⑤ |②---|
②口口① |③-④-|
口④③口 |--⑤-|
52
口口口口 |----|
口口口口 |----|
口口口口 |----|
口口口口 |----|
53
口①口① |①---|
③口③口 |--②-|
口②口② |----|
口口口口 |③---|
54
口口口口 |①---|
口口口口 |----|
口口口口 |----|
①口①口 |----|
55
①口①口 |①---|
口③口③ |--②-|
②口②口 |----|
口口口口 |③---|
56
口口口口 |①---|
口口口口 |----|
口口口口 |----|
口①口① |----|
57
①口口② |①---|
口③口口 |②---|
口口④口 |③-④-|
⑤口口口 |--⑤-|
58
口口口口 |----|
口③口口 |①---|
口口②口 |②---|
口口口① |③---|
59
口口①口 |①---|
口口口口 |②-③-|
口②口口 |----|
口口③③ |----|
60
①①口③ |----|
③口口口 |①---|
口口口③ |②---|
③口②② |③---|
61
口口口口 |①---|
口①①口 |----|
口①①口 |----|
口口口口 |----|
62
口口口口 |----|
口口口口 |----|
口口口口 |----|
口口口口 |----|
63
口口口口 |①-②-|
口口口口 |③-④-|
⑤⑥④③ |⑤-⑥-|
①②口⑦ |--⑦-|
64
口口口口 |----|
口口口口 |----|
口口口口 |----|
口口口口 |----|
65
①②口口 |①-②-|
⑤⑥④③ |③-④-|
口口口⑦ |⑤-⑥-|
口口口口 |--⑦-|
66
口口口④ |--①-|
③口口口 |--②-|
口口②口 |③---|
口①口口 |④---|
67
口口口⑦ |①-②-|
⑤⑥口口 |③-④-|
口口④③ |⑤-⑥-|
①②口口 |--⑦-|
68
①口口口 |----|
口②口口 |----|
口口③口 |①-②-|
口口口口 |③---|
69
口口口口 |①-②-|
口口口口 |③-④-|
⑤⑥⑦⑧ |⑤-⑥-|
①②③④ |⑦-⑧-|
70
①①①① |①---|
②②②② |②---|
口口口口 |③---|
③③③③ |----|

不確定度: 0

最終更新:2014年12月12日 01:35