瞬間 I LOVE YOU
H&A

EXTREME

Level: 7
BPM: 167
Notes: 499

1
口口口口 |----|
口口口口 |----|
口口口口 |----|
口口口口 |----|
2
①口②① |①-②-|
③口④③ |③-④-|
⑤口⑥⑤ |⑤-⑥-|
⑦口⑧⑦ |⑦-⑧-|
3
①口口① |①-②-|
③②②③ |③---|
口口口口 |----|
口口口口 |----|
4
①⑦口② |①-②-|
③口口④ |③-④-|
⑤口口⑥ |⑤-⑥-|
口口口口 |--⑦-|
5
口口②② |--①-|
口口口口 |②---|
口①③③ |③---|
口口口口 |----|
6
①⑦口② |①-②-|
③口口④ |③-④-|
⑤口口⑥ |⑤-⑥-|
口口口口 |--⑦-|
7
口口①① |----|
口口口口 |①---|
口口②② |②---|
口口口口 |----|
8
①⑦口② |①-②-|
③口口④ |③-④-|
⑤口口⑥ |⑤-⑥-|
口口口口 |--⑦-|
9
口口②② |--①-|
口口口口 |②---|
口①③③ |③---|
口口口口 |----|
10
口口口口 |①-②-|
口口口口 |③-④-|
①③口口
口②④口

口⑦⑦口
口口口口
⑦口⑤⑦ |⑤-⑥-|
口口口⑥ |--⑦-|
11
①口口① |----|
口②②口 |①---|
口①①口 |②---|
②口口② |----|
12
①⑦口② |①-②-|
③口口④ |③-④-|
⑤口口⑥ |⑤-⑥-|
口口口口 |--⑦-|
13
口口②② |--①-|
口口口口 |②---|
口①③③ |③---|
口口口口 |----|
14
①⑦口② |①-②-|
③口口④ |③-④-|
⑤口口⑥ |⑤-⑥-|
口口口口 |--⑦-|
15
口口①① |----|
口口口口 |①---|
口口②② |②---|
口口口口 |----|
16
①⑦口② |①-②-|
③口口④ |③-④-|
⑤口口⑥ |⑤-⑥-|
口口口口 |--⑦-|
17
口口②② |--①-|
口口口口 |②---|
口①③③ |③---|
口口口口 |----|
18
口口口口 |①-②-|
口口口口 |③-④-|
①③口口
口②④口

口⑦⑦口
口口口口
⑦口⑤⑦ |⑤-⑥-|
口口口⑥ |--⑦-|
19
①口口① |----|
口②②口 |①---|
口①①口 |②---|
②口口② |----|
20
口口口口 |①-②-|
④口口口 |③-④-|
②③口口
口①口口

⑥口口口
口⑤口口
口口口口 |⑤-⑥-|
⑦⑦口口 |--⑦-|
21
口口口口 |----|
口口口口 |----|
口口口口 |----|
口口口口 |----|
22
口口口口 |①-②-|
口口口④ |③-④-|
口口③②
口口①口

口口口⑥
口口⑤口
口口口口 |⑤-⑥-|
口口⑦⑦ |--⑦-|
23
口口口口 |----|
口口口口 |----|
口口口口 |----|
口口口口 |----|
24
口①口口 |①-②-|
口③②口 |③-④-|
口⑤④口 |⑤-⑥-|
⑦口⑥口 |--⑦-|
25
口口口口 |--①-|
⑤口④口 |②-③-|
口③②口 |④---|
口①口口 |⑤---|
26
口②①口 |①-②-|
口④③口 |③-④-|
口口口口
口口口口

口口⑦⑦
口口口口
⑥⑥口口 |⑤-⑥-|
口口⑤⑤ |--⑦-|
27
④⑤⑥⑦ |--①-|
口①②③ |②-③-|
口口口口 |④-⑤-|
口口口口 |⑥-⑦-|
28
口口口口 |①-②-|
③①①③ |③---|
④②②④ |④---|
⑤口口⑤ |⑤---|
29
⑤口②⑤ |①---|
①④④② |②---|
⑤①口⑤ |③-④-|
口③③口 |--⑤-|
30
口口口口 |--①-|
口口口口 |②-③-|
口口①口
口②口③

口口口口
口口口口
⑥口⑦口 |④-⑤-|
④口⑤口 |⑥-⑦-|
31
⑤口②⑤ |①---|
①④④② |②---|
⑤①口⑤ |③-④-|
口③③口 |--⑤-|
32
口口口口 |--①-|
口口口口 |②-③-|
口口①口
口②口③

口口口口
口口口口
⑥④⑦⑤ |④-⑤-|
口口口口 |⑥-⑦-|
33
①①口口 |①---|
口口口口 |②---|
口口口口
口口②②

⑤⑤④口
口③口口
口口④口 |③-④-|
口③口口 |--⑤-|
34
口口口口 |----|
口口①① |①---|
②②口口 |②---|
口口③③ |③---|
35
口口口② |①---|
①口口口 |②---|
口口口②
①口口口

口口④口
⑤③口⑤
口口④口 |③-④-|
⑤③口⑤ |--⑤-|
36
口口口口 |--①-|
口口口口 |--②-|
①③口④ |③---|
口口②口 |④---|
37
口①②口 |①---|
①口口② |--②-|
口口口③ |----|
口口③口 |③---|
38
口口口口 |①---|
口口口口 |----|
①口口口 |----|
口①口口 |----|
39
①口口② |①---|
口①②口 |--②-|
口口③口 |----|
口口口③ |③---|
40
口④口口 |①-②-|
口口③口 |③-④-|
口①口② |----|
①口口口 |----|
41
②⑤⑤① |①---|
②口口① |②---|
口④③口 |③-④-|
口④③口 |--⑤-|
42
口口口③ |----|
口口口② |①---|
口口口① |②---|
③②①口 |③---|
43
①①①口 |①---|
口③③口 |--②-|
口③③④ |----|
口②②② |③-④-|
44
口口口口 |--①-|
口⑦⑥口 |②-③-|
①⑤④口 |④-⑤-|
口③②口 |⑥-⑦-|
45
⑤①②⑤ |①---|
①④④② |②---|
⑤口口⑤ |③-④-|
口③③口 |--⑤-|
46
口口口口 |--①-|
①口口口 |--②-|
口口②口 |③-④-|
口③④⑤ |⑤---|
47
⑤口②⑤ |①---|
①④④② |②---|
⑤①口⑤ |③-④-|
口③③口 |--⑤-|
48
口口口口 |--①-|
①③④口 |--②-|
口⑤②⑥ |③-④-|
口口口口 |⑤-⑥-|
49
①①口口 |①---|
口口口口 |②---|
口口口口
口口②②

⑤⑤④口
口③口口
口口④口 |③-④-|
口③口口 |--⑤-|
50
口口口口 |----|
口口①① |①---|
②②口口 |②---|
口口③③ |③---|
51
口口口② |①---|
①口口口 |②---|
口口口②
①口口口

口口④口
⑤③口⑤
口口④口 |③-④-|
⑤③口⑤ |--⑤-|
52
口口口口 |--①-|
口口口口 |--②-|
①③口口 |③---|
口口②④ |④---|
53
口①②口 |①---|
①口口② |--②-|
口口口③ |----|
口口③口 |③---|
54
口口口口 |①---|
口口口口 |----|
①口口口 |----|
口①口口 |----|
55
①口口② |①---|
口①②口 |--②-|
口口③口 |----|
口口口③ |③---|
56
口④口口 |①-②-|
口口③口 |③-④-|
口①口② |----|
①口口口 |----|
57
②⑤⑤① |①---|
②口口① |②---|
口④③口 |③-④-|
口④③口 |--⑤-|
58
口口口口 |①-②-|
③口口③ |③---|
②口口②
①口口①

口口口⑤
口口口口
口口④口 |④---|
⑤④口口 |⑤---|
59
①①①口 |①---|
口口口口 |②-③-|
口②②② |----|
口③③③ |----|
60
③口口③ |----|
口②②口 |①---|
口口口口 |②---|
口①①口 |③---|
61
口口②口 |①-②-|
口③④⑦ |③-④-|
①①①① |⑤-⑥-|
口⑤⑥口 |--⑦-|
62
口口口口 |--①-|
③口②④ |--②-|
①口口口 |③---|
④口口③ |④---|
63
口⑥⑤口 |①-②-|
口④③口 |③-④-|
口②①⑦ |⑤-⑥-|
口口口口 |--⑦-|
64
口口口口 |①-②-|
④口口⑤ |--③-|
③①②口 |④---|
⑤口口④ |⑤---|
65
口⑤⑥口 |①-②-|
口③④口 |③-④-|
口①②⑦ |⑤-⑥-|
口口口口 |--⑦-|
66
口口口口 |--①-|
③口②④ |--②-|
①口口口 |③---|
④口口③ |④---|
67
⑦⑤⑥⑦ |①-②-|
口③④口 |③-④-|
口①②口 |⑤-⑥-|
口口口口 |--⑦-|
68
口口口口 |----|
口口口口 |----|
口①口口 |①-②-|
口③②口 |③---|
69
①口②① |①-②-|
③口④③ |③-④-|
⑤口⑥⑤ |⑤-⑥-|
⑦口⑧⑦ |⑦-⑧-|
70
①②②① |①-②-|
③④④③ |③-④-|
⑤口口⑤ |⑤---|
口口口口 |----|

不確定度: 0

最終更新:2014年12月12日 01:34