Determination
柊木りお

BASIC

Level: 3
BPM: 230
Notes: 218

1
口口口口 |----|
口口口口 |----|
口口口口 |----|
口口口口 |----|
2
口口口口 |----|
口口口口 |----|
口口口口 |----|
口口口口 |----|
3
口口口口 |①---|
口口口口 |----|
口①口口 |----|
口口口口 |----|
4
口口口口 |①---|
口口口口 |----|
口口①口 |----|
口口口口 |----|
5
口口口口 |①---|
口①口口 |----|
口口口口 |----|
口口口口 |----|
6
口口口口 |①---|
口口①口 |----|
口口口口 |----|
口口口口 |----|
7
口口口口 |①---|
口口口口 |----|
口①口口 |----|
口口口口 |----|
8
口口口口 |①---|
口口口口 |----|
口口①口 |----|
口口口口 |----|
9
口口口口 |①---|
口①口口 |----|
口口口口 |----|
口口口口 |----|
10
口口口口 |①---|
口口①口 |----|
口口口口 |----|
口口口口 |----|
11
口口口口 |①---|
口口口口 |----|
①①口口 |----|
口口口口 |----|
12
口口口口 |①---|
口口口口 |----|
口口①① |----|
口口口口 |----|
13
口口口口 |①---|
口①口口 |----|
口口口口 |----|
口口口口 |----|
14
口口口口 |①---|
口口①口 |----|
口口口口 |----|
口口口口 |----|
15
口口口口 |①---|
口口口口 |----|
①①口口 |----|
口口口口 |----|
16
口口口口 |①---|
口口口口 |----|
口口①① |----|
口口口口 |----|
17
口口口口 |①---|
口①①口 |----|
口口口口 |----|
口口口口 |----|
18
口③③口 |----|
口②①口 |①---|
口口口口 |②---|
口口口口 |--③-|
19
口口口口 |----|
口①①口 |----|
口口口口 |①---|
口口口口 |----|
20
口口口口 |①---|
口口口口 |----|
口②①口 |②---|
口③③口 |--③-|
21
口口口口 |----|
口口口口 |----|
口口口口 |----|
口口口口 |----|
22
口口口口 |----|
口口口口 |①---|
口②①口 |②---|
口③③口 |--③-|
23
口口口口 |----|
口口口口 |----|
口①①口 |①---|
口口口口 |----|
24
口③③口 |①---|
口②①口 |----|
口口口口 |②---|
口口口口 |--③-|
25
口口口口 |----|
口口口口 |----|
口口口口 |----|
口口口口 |----|
26
口③③口 |----|
口②①口 |①---|
口口口口 |②---|
口口口口 |--③-|
27
口口口口 |----|
口①①口 |----|
口口口口 |①---|
口口口口 |----|
28
口口口口 |①---|
口口口口 |----|
口②①口 |②---|
口③③口 |--③-|
29
口口口口 |----|
口口口口 |----|
口口口口 |----|
口口口口 |----|
30
口③口口 |----|
②口口口 |①---|
①口口口 |②---|
口口口口 |--③-|
31
口口口口 |----|
口口口口 |----|
口口口口 |----|
口口口口 |----|
32
口口③口 |----|
口口口② |①---|
口口口① |②---|
口口口口 |--③-|
33
口口口口 |----|
口口口口 |----|
口①①口 |----|
口口口口 |--①-|
34
口口口口 |----|
口口口口 |----|
①口口口 |----|
口口口口 |--①-|
35
口口口口 |----|
①口口口 |----|
口口口口 |①---|
口口口口 |----|
36
口口口口 |①---|
口②口口 |----|
口①口口 |②---|
口口口口 |----|
37
口口口口 |①---|
口口②口 |----|
口口①口 |②---|
口口口口 |----|
38
口口口口 |①---|
口口口② |----|
口口口① |②---|
口口口口 |----|
39
①②③口 |----|
口口口口 |①---|
口口口口 |②---|
口口口口 |③---|
40
口口口① |①---|
口口口② |②---|
口口口③ |③---|
口口口④ |④---|
41
口口口口 |----|
口口口口 |①---|
口口口口 |②---|
①②③口 |③---|
42
口⑤口④ |①---|
口口口③ |②---|
口口口② |③---|
口口口① |④-⑤-|
43
口口口口 |----|
口口①口 |----|
口口口口 |①---|
口口口口 |----|
44
口口口口 |①---|
口口口口 |----|
口①口口 |②---|
②口③口 |--③-|
45
口口口口 |----|
口口口口 |----|
口①①口 |----|
口口口口 |--①-|
46
口口口口 |----|
口口口口 |----|
口口口口 |----|
口口口口 |----|
47
口③②① |----|
口口口口 |①---|
口口口口 |②---|
口口口口 |③---|
48
①口口口 |①---|
②口口口 |②---|
③口口口 |③---|
④口口口 |④---|
49
口口口口 |----|
口口口口 |①---|
口口口口 |②---|
口③②① |③---|
50
④口⑤口 |①---|
③口口口 |②---|
②口口口 |③---|
①口口口 |④-⑤-|
51
口口口口 |----|
口口口口 |----|
口①①口 |①---|
口口口口 |----|
52
口②②口 |①---|
③①①③ |----|
口口口口 |②---|
口口口口 |--③-|
53
口口口口 |----|
口口口口 |----|
口口口口 |----|
口口口口 |----|
54
口口口口 |----|
口①口口 |----|
口①口口 |----|
口口口口 |--①-|
55
口口口口 |----|
口口口口 |----|
口口口口 |----|
口口口口 |----|
56
口口口口 |----|
口口①口 |----|
口口①口 |----|
口口口口 |--①-|
57
口口口口 |----|
口口口口 |----|
口口口口 |----|
口口口口 |----|
58
口口口口 |----|
口口口口 |----|
口口口口 |----|
①口口① |--①-|
59
口口口口 |----|
口口口口 |----|
①口口① |①---|
口口口口 |----|
60
口口口口 |①---|
口口口口 |----|
口②②口 |②---|
口①①口 |----|
61
口口口口 |①---|
口口口口 |----|
②口口② |②---|
①口口① |----|
62
口口口口 |①---|
③③口口 |----|
口②②口 |②---|
口①①口 |--③-|
63
口口口口 |----|
口口口口 |----|
口口口口 |----|
口口口口 |----|
64
口口口口 |----|
口口①① |----|
口口口口 |----|
口口口口 |--①-|
65
口口口口 |----|
口口口口 |----|
口口口口 |----|
口口口口 |----|
66
口口口口 |①---|
口①①口 |----|
口口口口 |----|
口②②口 |--②-|
67
口口口口 |----|
口①口口 |----|
口口①口 |----|
口口口口 |--①-|
68
口①①口 |----|
口口口口 |----|
口口口口 |----|
口口口口 |--①-|
69
口口口口 |--①-|
口①①口 |--②-|
口②②口 |--③-|
④③③④ |--④-|
70
口③③口 |----|
口②①口 |①---|
口口口口 |②---|
口口口口 |--③-|
71
口口口口 |----|
口①①口 |----|
口口口口 |①---|
口口口口 |----|
72
口口口口 |①---|
口口口口 |----|
口②①口 |②---|
口③③口 |--③-|
73
口口口口 |----|
口口口口 |----|
口口口口 |----|
口口口口 |----|
74
口口口口 |----|
口口口口 |①---|
口②①口 |②---|
口③③口 |--③-|
75
口口口口 |----|
口口口口 |----|
口①①口 |①---|
口口口口 |----|
76
口③③口 |①---|
口②①口 |----|
口口口口 |②---|
口口口口 |--③-|
77
口口口口 |----|
口口口口 |----|
口口口口 |----|
口口口口 |----|
78
口③③口 |----|
口②①口 |①---|
口口口口 |②---|
口口口口 |--③-|
79
口口口口 |----|
口①①口 |----|
口口口口 |①---|
口口口口 |----|
80
口口口口 |①---|
口口口口 |----|
口②①口 |②---|
口③③口 |--③-|
81
口口口口 |----|
口口口口 |----|
口口口口 |----|
口口口口 |----|
82
口③口口 |----|
②口口口 |①---|
①口口口 |②---|
口口口口 |--③-|
83
口口口口 |----|
口口口口 |----|
口口口口 |----|
口口口口 |----|
84
口口③口 |----|
口口口② |①---|
口口口① |②---|
口口口口 |--③-|
85
口口口口 |----|
口口口口 |----|
口①①口 |----|
口口口口 |--①-|
86
口口口口 |----|
口口口口 |----|
口口口口 |----|
①口口① |--①-|
87
口口口口 |----|
口口口口 |----|
①口口① |①---|
口口口口 |----|
88
口口口口 |①---|
口口口口 |----|
口②②口 |②---|
口①①口 |----|
89
口口口口 |①---|
口③口口 |----|
②口③② |②---|
①口口① |--③-|
90
口口口口 |----|
口口①口 |----|
口①口口 |①---|
②口口② |--②-|
91
口口口口 |----|
口口口口 |----|
①口口① |①---|
口口口口 |----|
92
口口口口 |①---|
口口口口 |----|
口②②口 |②---|
口①①口 |----|
93
口口口口 |①---|
口③③口 |----|
②口口② |②---|
①口口① |--③-|

不確定度: 0

最終更新:2014年12月12日 01:32