Determination
柊木りお

ADVANCED

Level: 7
BPM: 230
Notes: 392

1
口口口口 |----|
口口口口 |----|
口口口口 |----|
口口口口 |----|
2
口口口口 |----|
口口口口 |----|
口口口口 |----|
口口口口 |----|
3
口口口口 |①---|
口口口口 |----|
口口口口 |----|
口①口口 |----|
4
口口口口 |①---|
口①口口 |----|
口口口口 |----|
口口口口 |----|
5
口口口口 |①---|
口口口口 |----|
口口口口 |----|
口口①口 |----|
6
口口口口 |①---|
口口①口 |----|
口口口口 |----|
口口口口 |----|
7
口口口口 |①---|
口口口口 |----|
口①口口 |----|
口口口口 |----|
8
口口口口 |①---|
口①口口 |----|
口口口口 |----|
口口口口 |----|
9
口口口口 |①---|
口口口口 |----|
口口①口 |----|
口口口口 |----|
10
口口口口 |①---|
口口①口 |----|
口口口口 |----|
口口口口 |----|
11
口口口口 |①---|
口口口口 |----|
①①口口 |----|
口口口口 |----|
12
口口口口 |①---|
口①口口 |----|
口口口口 |----|
口口口口 |----|
13
口口口口 |①---|
口口口口 |----|
口口①① |----|
口口口口 |----|
14
口口口口 |①---|
口口①口 |----|
口口口口 |----|
口口口口 |----|
15
口口口口 |①---|
口口口口 |----|
①①口口 |----|
口口口口 |----|
16
口口口口 |①---|
口口口口 |----|
口口①① |----|
口口口口 |----|
17
口口口口 |①---|
口①①口 |----|
口①①口 |----|
口口口口 |----|
18
口①④④ |----|
口口口口 |①---|
口③②口 |②-③-|
口口口口 |--④-|
19
口口口口 |----|
口口②② |①---|
③口口口 |②---|
①口口口 |③---|
20
④口⑤口 |①---|
②口⑤口 |②---|
口口①③ |③---|
口口③① |④-⑤-|
21
口口口口 |--①-|
口口口口 |②---|
口①②口 |----|
口口③口 |③---|
22
口口口口 |----|
口③②口 |①---|
口口口口 |②-③-|
口①④④ |--④-|
23
①口口口 |----|
③口口口 |①---|
口口②② |②---|
口口口口 |③---|
24
口口①③ |①---|
口口③① |②---|
②口⑤口 |③---|
④口⑤口 |④-⑤-|
25
口①②口 |--①-|
口口③口 |②---|
口口口口 |----|
口口口口 |③---|
26
口①④④ |----|
口口口口 |①---|
口③②口 |②-③-|
口口口口 |--④-|
27
口口口口 |----|
口口②② |①---|
③口口口 |②---|
①口口口 |③---|
28
④口⑤口 |①---|
②口⑤口 |②---|
口口①③ |③---|
口口③① |④-⑤-|
29
口口口口 |--①-|
口口口口 |②---|
口①②口 |----|
口口口③ |③---|
30
口⑤⑤口 |----|
口口口口 |①-②-|
口③④口 |③-④-|
口①②口 |--⑤-|
31
口口口口 |----|
口②①口 |①---|
口口口口 |----|
口口口口 |②---|
32
口②③口 |----|
④口①④ |①---|
口口口口 |②-③-|
口口口口 |--④-|
33
口⑦⑥口 |--①-|
口⑤④口 |②-③-|
口③②口 |④-⑤-|
口①口口 |⑥-⑦-|
34
口口口口 |----|
口口口口 |----|
口口口口 |----|
①口口① |--①-|
35
口口口口 |----|
口口口口 |----|
①口口① |①---|
口口口口 |----|
36
口口口口 |①---|
口口口口 |----|
口②②口 |②---|
口①①口 |----|
37
口口口口 |①---|
口口口口 |----|
②口口② |②---|
①口口① |----|
38
①①①① |--①-|
口口口口 |----|
口口口口 |----|
口口口口 |----|
39
口口口口 |----|
口③口口 |①---|
口②口口 |②---|
①①口口 |③---|
40
口④⑤口 |①---|
口口③口 |②---|
口口②口 |③---|
口口①① |④-⑤-|
41
口口口口 |----|
口③口口 |①---|
口②口口 |②---|
①①口口 |③---|
42
口④⑤口 |①---|
口口③口 |②---|
口口②口 |③---|
口口①① |④-⑤-|
43
口口口口 |----|
口②②口 |①---|
口①①口 |②---|
口③③口 |③---|
44
口③③口 |①---|
①口口① |②---|
口④口口 |③---|
②口口② |--④-|
45
口口口口 |--①-|
口口口③ |②---|
口口口④ |③---|
口①②口 |④---|
46
口口口口 |①---|
①④③口 |②---|
②口口口 |③---|
口口口口 |④---|
47
口口口口 |----|
口③口口 |①---|
口②口口 |②---|
①①口口 |③---|
48
口④⑤口 |①---|
口口③口 |②---|
口口②口 |③---|
口口①① |④-⑤-|
49
口口口口 |----|
口③口口 |①---|
口②口口 |②---|
①①口口 |③---|
50
口④⑤口 |①---|
口口③口 |②---|
口口②口 |③---|
口口①① |④-⑤-|
51
口口口口 |----|
口②②口 |①---|
口①①口 |②---|
口③③口 |③---|
52
③口口③ |①---|
①④④① |②---|
口口口口 |③---|
②口口② |--④-|
53
口口口口 |--①-|
口口口口 |②---|
口口口③ |----|
口②①口 |③---|
54
口口口口 |----|
口口⑤⑤ |①-②-|
口④③口 |③-④-|
口②①口 |--⑤-|
55
口口口口 |----|
口口口口 |----|
口口口口 |----|
口口口口 |----|
56
口口口口 |①---|
①①口口 |----|
口口口口 |----|
口口口口 |----|
57
口口口口 |①---|
口口口口 |----|
口口①口 |----|
口口口口 |----|
58
口口口口 |①---|
口口口口 |----|
口①口口 |----|
②口口② |--②-|
59
口口口口 |----|
口口口口 |----|
①①①① |①---|
口口口口 |----|
60
口口口口 |①---|
②②②② |----|
口口口口 |②---|
①口口① |----|
61
口口口口 |①---|
口口口口 |----|
②②②② |②---|
①口口① |----|
62
口口口口 |①---|
②②②② |----|
口③口口 |②---|
①口口① |--③-|
63
口口口口 |----|
口口口口 |----|
口口口口 |----|
口口口口 |----|
64
口口口口 |①---|
口口口口 |----|
口口①口 |----|
口口口口 |----|
65
口口口口 |①---|
①①口口 |----|
口口口口 |----|
口口口口 |----|
66
口口口口 |①---|
口口①① |----|
口口口口 |----|
口口口口 |----|
67
口口口口 |--①-|
口①②口 |②-③-|
⑦③④⑦ |④-⑤-|
口⑤⑥口 |⑥-⑦-|
68
口口口口 |--①-|
②④④② |--②-|
口③③口 |--③-|
①口口① |--④-|
69
③口口③ |--①-|
口④④口 |--②-|
②口口② |--③-|
口①①口 |--④-|
70
口①④④ |----|
口口口口 |①---|
口③②口 |②-③-|
口口口口 |--④-|
71
口口口口 |----|
口口②② |①---|
③口口口 |②---|
①口口口 |③---|
72
④口⑤口 |①---|
②口⑤口 |②---|
口口①③ |③---|
口口③① |④-⑤-|
73
口口口口 |--①-|
口口口口 |②---|
口①②口 |----|
口口③口 |③---|
74
口口口口 |----|
口③②口 |①---|
口口口口 |②-③-|
口①④④ |--④-|
75
①口口口 |----|
③口口口 |①---|
口口②② |②---|
口口口口 |③---|
76
口口①③ |①---|
口口③① |②---|
②口⑤口 |③---|
④口⑤口 |④-⑤-|
77
口①②口 |--①-|
口口③口 |②---|
口口口口 |----|
口口口口 |③---|
78
口①④④ |----|
口口口口 |①---|
口③②口 |②-③-|
口口口口 |--④-|
79
口口口口 |----|
口口②② |①---|
③口口口 |②---|
①口口口 |③---|
80
④口⑤口 |①---|
②口⑤口 |②---|
口口①③ |③---|
口口③① |④-⑤-|
81
口口口口 |--①-|
口口口口 |②---|
口①②口 |----|
口口口③ |③---|
82
口⑤⑤口 |----|
口口口口 |①-②-|
口③④口 |③-④-|
口①②口 |--⑤-|
83
口口口口 |----|
口②①口 |①---|
口口口口 |----|
口口口口 |②---|
84
口②③口 |----|
④口①④ |①---|
口口口口 |②-③-|
口口口口 |--④-|
85
口⑦⑥口 |--①-|
口⑤④口 |②-③-|
口③②口 |④-⑤-|
口①口口 |⑥-⑦-|
86
口口口口 |----|
口口口口 |----|
口口口口 |----|
①口口① |--①-|
87
口口口口 |----|
口口口口 |----|
①①①① |①---|
口口口口 |----|
88
口口口口 |①---|
②②②② |----|
口口口口 |②---|
①口口① |----|
89
口③口口 |①---|
口口③口 |----|
②②②② |②---|
①口口① |--③-|
90
口口①口 |----|
口①口口 |----|
口口口口 |①---|
②口口② |--②-|
91
口口口口 |----|
口口口口 |----|
①①①① |①---|
口口口口 |----|
92
口口口口 |①---|
②②②② |----|
口口口口 |②---|
①口口① |----|
93
口口口口 |①---|
口④③口 |----|
②②②② |②---|
①口口① |③-④-|

不確定度: 0

最終更新:2014年12月12日 01:32