Determination
柊木りお

EXTREME

Level: 8
BPM: 230
Notes: 607

1
口口口口 |----|
口口口口 |----|
口口口口 |----|
口口口口 |----|
2
口口口口 |----|
口口口口 |----|
口口口口 |----|
口口口口 |----|
3
口口口口 |①---|
口口口② |----|
口口口口 |②---|
口口①口 |----|
4
口口口口 |①---|
②口口口 |----|
口口口口 |②---|
口①口口 |----|
5
口口口口 |①---|
口口口② |----|
口口口口 |②---|
口口①口 |----|
6
口口口口 |①---|
②口口口 |----|
口口口口 |②---|
口①口口 |----|
7
口口口口 |①---|
口口②口 |----|
口口口口 |②---|
口口①① |----|
8
口口口口 |①---|
口②口口 |----|
口口口口 |②---|
①①口口 |----|
9
口口口口 |①---|
口口②口 |----|
口口口口 |②---|
口口①① |----|
10
口口口口 |①---|
①口口② |----|
口①②口 |②---|
口口口口 |----|
11
口口口口 |①---|
口口②口 |----|
口口口① |②---|
口口①口 |----|
12
口口口口 |①---|
口②口口 |----|
①口口口 |②---|
口①口口 |----|
13
口口口口 |①---|
口口②口 |----|
口口口① |②---|
口口①口 |----|
14
口口口口 |①---|
口②口口 |----|
①口口口 |②---|
口①口口 |----|
15
口口②口 |①---|
口口口口 |----|
口口①① |②---|
口口口口 |----|
16
口②口口 |①---|
口口口口 |----|
①①口口 |②---|
口口口口 |----|
17
口口口口 |①---|
口口口口 |----|
口口口口 |----|
①①①① |----|
18
口口⑤⑤ |----|
口③②口 |①---|
口口④口 |②-③-|
口①口口 |④-⑤-|
19
⑤口口口 |--①-|
①口④④ |②-③-|
⑦③⑥口 |④-⑤-|
口口②口 |⑥-⑦-|
20
口口①① |①-②-|
⑥②⑤⑤ |③-④-|
⑧⑧口③ |⑤-⑥-|
口④⑦口 |⑦-⑧-|
21
①③口② |--①-|
口⑤④口 |②-③-|
口口⑥口 |④-⑤-|
⑦⑦口口 |⑥-⑦-|
22
口口口口 |--①-|
口⑤④口 |②-③-|
③①⑥② |④-⑤-|
⑦⑦口口 |⑥-⑦-|
23
⑤口口口 |--①-|
①口④④ |②-③-|
⑦③⑥口 |④-⑤-|
口口②口 |⑥-⑦-|
24
⑥口①① |①-②-|
口②⑤⑤ |③-④-|
⑧⑧口③ |⑤-⑥-|
口④⑦口 |⑦-⑧-|
25
口③②口 |--①-|
⑤①口④ |②-③-|
⑦⑦口口 |④-⑤-|
口口⑥⑥ |⑥-⑦-|
26
口④⑦⑦ |--①-|
口②③口 |②-③-|
口口⑤① |④-⑤-|
口⑥口口 |⑥-⑦-|
27
⑤口口口 |--①-|
①口④④ |②-③-|
⑦③⑥口 |④-⑤-|
口口②口 |⑥-⑦-|
28
口口①① |①-②-|
⑥②⑤⑤ |③-④-|
⑧⑧口③ |⑤-⑥-|
口④⑦口 |⑦-⑧-|
29
①③口② |--①-|
口⑤④口 |②-③-|
口口⑥口 |④-⑤-|
⑦⑦口口 |⑥-⑦-|
30
口口口口 |--①-|
口⑤④口 |②-③-|
③①⑥② |④-⑤-|
⑦⑦口口 |⑥-⑦-|
31
①⑦口④ |--①-|
⑤口口口 |②-③-|
口③⑥口 |④-⑤-|
口口口② |⑥-⑦-|
32
⑧⑧口口 |①-②-|
口⑥⑤⑤ |③-④-|
②④⑦① |⑤-⑥-|
口口③③ |⑦-⑧-|
33
口口口口 |--①-|
口⑤④口 |②-③-|
③⑦⑥② |④-⑤-|
口①口口 |⑥-⑦-|
34
口口口口 |----|
口口口口 |----|
口口口口 |----|
①①口口 |--①-|
35
口口口口 |----|
口口口口 |--①-|
口口①② |②---|
口口③口 |--③-|
36
①口②口 |--①-|
口口口口 |----|
口①②口 |②---|
③④口口 |③-④-|
37
口口口口 |--①-|
口②③口 |--②-|
口④口① |③-④-|
口口口口 |----|
38
口③②口 |--①-|
⑤口⑥④ |②-③-|
①口口口 |④-⑤-|
口⑦口口 |⑥-⑦-|
39
口口③① |----|
④②口⑤ |①-②-|
口⑥③① |③-④-|
口口口⑤ |⑤-⑥-|
40
⑥口⑤③ |①-②-|
口④①⑦ |③-④-|
②口口③ |⑤-⑥-|
⑧⑧①口 |⑦-⑧-|
41
口口④② |--①-|
⑤③口⑥ |②-③-|
①⑦④② |④-⑤-|
口口口⑥ |⑥-⑦-|
42
⑥口⑤③ |①-②-|
口④①⑦ |③-④-|
②⑧口③ |⑤-⑥-|
口口①口 |⑦-⑧-|
43
口口④③ |--①-|
口口口口 |②---|
口口口口 |③-④-|
⑤②①口 |⑤---|
44
③口⑦⑦ |①-②-|
口口②① |③---|
⑥口⑤④ |④-⑤-|
口口口口 |⑥-⑦-|
45
口口口口 |--①-|
口①口③ |②---|
口口⑥⑥ |③-④-|
⑤②④口 |⑤-⑥-|
46
口③②口 |--①-|
⑤⑦口④ |②-③-|
口①口口 |④-⑤-|
口口⑥口 |⑥-⑦-|
47
①③口口 |----|
⑤口②④ |①-②-|
①③⑥口 |③-④-|
⑤口口口 |⑤-⑥-|
48
③⑤口⑥ |①-②-|
⑦①④口 |③-④-|
③口⑧② |⑤-⑥-|
口①口口 |⑦-⑧-|
49
②④口口 |--①-|
⑥口③⑤ |②-③-|
②④⑦口 |④-⑤-|
⑥口口① |⑥-⑦-|
50
③⑤口⑥ |①-②-|
⑦①④口 |③-④-|
③口⑧② |⑤-⑥-|
口①口口 |⑦-⑧-|
51
口口口口 |--①-|
口口④③ |②---|
口口口口 |③-④-|
⑤①②口 |⑤---|
52
③口⑤④ |①-②-|
口口⑦⑦ |③---|
⑥口②① |④-⑤-|
口口口口 |⑥-⑦-|
53
口口口口 |--①-|
口口⑥口 |②---|
⑤①②④ |③-④-|
口③口口 |⑤-⑥-|
54
口口④口 |--①-|
口⑤口口 |②-③-|
口③口口 |④-⑤-|
①⑥②口 |--⑥-|
55
口口口① |----|
口口口② |①---|
口口口③ |②---|
口口口口 |③---|
56
口口口口 |①---|
口④⑤口 |②---|
口口口口 |③---|
口③②① |④-⑤-|
57
①口口口 |----|
②口口口 |①---|
③口口口 |②---|
口口口口 |③---|
58
口口口口 |①---|
口口口口 |②---|
口④③③ |③---|
①②④口 |--④-|
59
①②②① |----|
口口口口 |--①-|
口口口口 |②---|
口③③口 |--③-|
60
②②②② |--①-|
口口口口 |----|
③①①③ |②---|
④④④④ |③-④-|
61
②②②② |----|
口口口口 |--①-|
口①①口 |②---|
口口口口 |----|
62
口②②口 |--①-|
②口口② |----|
口口口口 |②---|
①①①① |----|
63
口口口① |----|
口口口② |①---|
口口口③ |②---|
口口口口 |③---|
64
口口口口 |①---|
口④⑤口 |②---|
口口口口 |③---|
口③②① |④-⑤-|
65
①口口口 |----|
②口口口 |①---|
③口口口 |②---|
口口口口 |③---|
66
口口口口 |①---|
口口口口 |②---|
口口③③ |③---|
①②口口 |----|
67
口①口口 |--①-|
⑦③②⑦ |②-③-|
口⑤④口 |④-⑤-|
口口⑥口 |⑥-⑦-|
68
口③①口 |--①-|
口②②④ |--②-|
口口③④ |--③-|
口①口④ |--④-|
69
②③③③ |--①-|
②口口④ |--②-|
②口口④ |--③-|
①①①④ |--④-|
70
口口⑤⑤ |----|
口③②口 |①---|
口口④口 |②-③-|
口①口口 |④-⑤-|
71
⑤口口口 |--①-|
①口④④ |②-③-|
⑦③⑥口 |④-⑤-|
口口②口 |⑥-⑦-|
72
口口①① |①-②-|
⑥②⑤⑤ |③-④-|
⑧⑧口③ |⑤-⑥-|
口④⑦口 |⑦-⑧-|
73
①③口② |--①-|
口⑤④口 |②-③-|
口口⑥口 |④-⑤-|
⑦⑦口口 |⑥-⑦-|
74
口口口口 |--①-|
口⑤④口 |②-③-|
③①⑥② |④-⑤-|
⑦⑦口口 |⑥-⑦-|
75
⑤口口口 |--①-|
①口④④ |②-③-|
⑦③⑥口 |④-⑤-|
口口②口 |⑥-⑦-|
76
⑥口①① |①-②-|
口②⑤⑤ |③-④-|
⑧⑧口③ |⑤-⑥-|
口④⑦口 |⑦-⑧-|
77
口③②口 |--①-|
⑤①口④ |②-③-|
⑦⑦口口 |④-⑤-|
口口⑥⑥ |⑥-⑦-|
78
口④⑦⑦ |--①-|
口②③口 |②-③-|
口口⑤① |④-⑤-|
口⑥口口 |⑥-⑦-|
79
⑤口口口 |--①-|
①口④④ |②-③-|
⑦③⑥口 |④-⑤-|
口口②口 |⑥-⑦-|
80
口口①① |①-②-|
⑥②⑤⑤ |③-④-|
⑧⑧口③ |⑤-⑥-|
口④⑦口 |⑦-⑧-|
81
①③口② |--①-|
口⑤④口 |②-③-|
口口⑥口 |④-⑤-|
⑦⑦口口 |⑥-⑦-|
82
口口口口 |--①-|
口⑤④口 |②-③-|
③①⑥② |④-⑤-|
⑦⑦口口 |⑥-⑦-|
83
①⑦口④ |--①-|
⑤口口口 |②-③-|
口③⑥口 |④-⑤-|
口口口② |⑥-⑦-|
84
⑧⑧口口 |①-②-|
口⑥⑤⑤ |③-④-|
②④⑦① |⑤-⑥-|
口口③③ |⑦-⑧-|
85
口口口口 |--①-|
口⑤④口 |②-③-|
③⑦⑥② |④-⑤-|
口①口口 |⑥-⑦-|
86
口口口口 |----|
口口口口 |----|
口口口口 |----|
①①口口 |--①-|
87
口口口口 |----|
口口口口 |--①-|
口口①② |②---|
口口③口 |--③-|
88
①口②口 |--①-|
口口③口 |----|
口①④口 |②-③-|
⑤⑤口口 |④-⑤-|
89
口口口口 |--①-|
⑥①⑥口 |--②-|
③④⑤③ |③-④-|
口口②口 |⑤-⑥-|
90
口口口① |----|
口口口口 |----|
①口口口 |①---|
②②②② |--②-|
91
口口口口 |----|
口①②口 |--①-|
口口口口 |②---|
口口③口 |--③-|
92
①口②口 |--①-|
口口③口 |----|
口①④口 |②-③-|
⑤⑤口口 |④-⑤-|
93
口口口口 |--①-|
⑥①口⑥ |--②-|
③④⑤③ |③-④-|
口口②口 |⑤-⑥-|

不確定度: 0

最終更新:2014年12月12日 01:32