川崎純情音頭
川崎純情小町☆

BASIC

Level: 2
BPM: 132
Notes: 184

1
口口口口 |----|
口口口口 |----|
口口口口 |----|
口口口口 |----|
2
口口口口 |①---|
口①①口 |----|
口①①口 |----|
口口口口 |----|
3
口口口口 |①---|
口①①口 |----|
口①①口 |----|
口口口口 |----|
4
口口口口 |①---|
口①①口 |----|
口①①口 |----|
口口口口 |----|
5
④口口④ |①---|
③口口③ |②---|
②口口② |③---|
①口口① |④---|
6
口口口口 |①---|
口①①口 |----|
口①①口 |----|
口口口口 |----|
7
口口口口 |①---|
口①①口 |----|
口①①口 |----|
口口口口 |----|
8
口口口口 |①---|
口①①口 |----|
口①①口 |----|
口口口口 |----|
9
④口口④ |①---|
③口口③ |②---|
②口口② |③---|
①口口① |④---|
10
口①②口 |①---|
口③④口 |②---|
口口口口 |③---|
口口口口 |④---|
11
口口口口 |①---|
口口口口 |②---|
口①②口 |③---|
口③④口 |④---|
12
口口口口 |①---|
口口口口 |②---|
③口口④ |③---|
①口口② |④---|
13
③口口④ |①---|
①口口② |②---|
口口口口 |③---|
口口口口 |④---|
14
口①②口 |①---|
口③④口 |②---|
口口口口 |③---|
口口口口 |④---|
15
口口口口 |①---|
口口口口 |②---|
口①②口 |③---|
口③④口 |④---|
16
口口口口 |①---|
口口口口 |②---|
③口口④ |③---|
①口口② |④---|
17
③口口口 |①---|
①口口② |②---|
口口口口 |③---|
口口口口 |----|
18
口口口口 |----|
口口①口 |①---|
口②口口 |----|
口口口口 |②---|
19
口口口④ |①---|
口口③口 |②---|
口口口② |③---|
口口①口 |④---|
20
口①口口 |----|
口口②口 |①---|
口口口口 |----|
口口口口 |②---|
21
①口口口 |①---|
口②口口 |②---|
③口口口 |③---|
口④口口 |④---|
22
口口口口 |----|
口②口口 |①---|
口口①口 |----|
口口口口 |②---|
23
口口口口 |----|
口口口① |①---|
口口②口 |②---|
口口口③ |③---|
24
口口口口 |----|
口口口口 |①---|
口口②口 |----|
口①口口 |②---|
25
口④口口 |①---|
③口口口 |②---|
口②口口 |③---|
①口口口 |④---|
26
口口口① |①---|
口口②口 |----|
口口口口 |②---|
口口口口 |----|
27
口口口口 |①---|
口口口口 |----|
口①口口 |②---|
②口口口 |----|
28
①口口口 |①---|
口②口口 |----|
口口口口 |②---|
口口口口 |----|
29
口口口口 |①---|
口口口口 |----|
口口①口 |②---|
口口口② |----|
30
口口口口 |①---|
口口口口 |----|
口口②口 |②---|
口①口口 |----|
31
口口②口 |①---|
口①口口 |----|
口口口口 |②---|
口口口口 |----|
32
口口口口 |--①-|
①口口① |----|
②口口② |②---|
口口口口 |----|
33
口④④口 |①---|
口③③口 |②---|
口②②口 |③---|
口①①口 |④---|
34
①口口③ |①---|
②口口④ |②---|
口口口口 |③---|
口口口口 |④---|
35
口口口口 |①---|
口①②口 |②---|
口③口口 |③---|
口口口口 |----|
36
口口口口 |----|
口口口口 |①---|
①口口② |----|
①口口② |②---|
37
口①口口 |①---|
口口②口 |②---|
口③口口 |③---|
口口口口 |----|
38
③口口① |①---|
④口口② |②---|
口口口口 |③---|
口口口口 |④---|
39
口口口口 |①---|
口②①口 |②---|
口口③口 |③---|
口口口口 |----|
40
口口口口 |----|
口口口口 |①---|
口口口口 |----|
①①②② |②---|
41
口口④口 |①---|
口③口口 |②---|
口①②口 |③---|
口口口口 |④---|
42
口①口口 |①---|
②口口② |----|
口口口口 |②---|
口口口口 |----|
43
口口口口 |①---|
口口口口 |----|
①口口① |②---|
②口口② |----|
44
口口口口 |①---|
口口口口 |----|
口②②口 |②---|
口①①口 |----|
45
口②②口 |①---|
口①①口 |----|
口口口口 |②---|
口口口口 |----|
46
①口口口 |①---|
口口口② |②---|
③口口口 |③---|
口口口④ |④---|
47
口口口④ |①---|
口③③口 |②---|
口②②口 |③---|
口①①口 |④---|
48
①口口口 |①---|
口口口② |②---|
③口口口 |③---|
口口口④ |④---|
49
④口口口 |①---|
口③③口 |②---|
口②②口 |③---|
口①①口 |④---|

不確定度: 0

最終更新:2014年12月12日 01:20