川崎純情音頭
川崎純情小町☆

ADVANCED

Level: 6
BPM: 132
Notes: 386

1
口口口口 |----|
口口口口 |----|
口口口口 |----|
口口口口 |----|
2
口口口口 |①---|
口①①口 |----|
口①①口 |----|
口口口口 |----|
3
口①口口 |①---|
①口口口 |----|
口口口① |----|
口口①口 |----|
4
口口①口 |①---|
口口口① |----|
①口口口 |----|
口①口口 |----|
5
②②①① |①-②-|
④④③③ |③-④-|
口口⑤⑤ |⑤---|
口口口口 |----|
6
④口口⑤ |①-②-|
⑥口口③ |③-④-|
②口口⑦ |⑤-⑥-|
⑧口口① |⑦-⑧-|
7
口④⑧口 |①-②-|
口⑦③口 |③-④-|
口②⑥口 |⑤-⑥-|
口⑤①口 |⑦-⑧-|
8
⑤口口④ |①-②-|
③口口⑥ |③-④-|
⑦口口② |⑤-⑥-|
①口口⑧ |⑦-⑧-|
9
口⑦⑧口 |①-②-|
口⑤⑥口 |③-④-|
口③④口 |⑤-⑥-|
口①②口 |⑦-⑧-|
10
⑤口口④ |①-②-|
③口口⑥ |③-④-|
⑦口口② |⑤-⑥-|
①口口⑧ |⑦-⑧-|
11
口⑧④口 |①-②-|
口③⑦口 |③-④-|
口⑥②口 |⑤-⑥-|
口①⑤口 |⑦-⑧-|
12
④口口⑤ |①-②-|
⑥口口③ |③-④-|
②口口⑦ |⑤-⑥-|
⑧口口① |⑦-⑧-|
13
口④⑤⑤ |①-②-|
⑥⑥③口 |③-④-|
口②口口 |⑤---|
口口①口 |⑥---|
14
④口口⑤ |①-②-|
⑥口口③ |③-④-|
②口口⑦ |⑤-⑥-|
⑧口口① |⑦-⑧-|
15
口④⑧口 |①-②-|
口⑦③口 |③-④-|
口②⑥口 |⑤-⑥-|
口⑤①口 |⑦-⑧-|
16
⑤口口④ |①-②-|
③口口⑥ |③-④-|
⑦口口② |⑤-⑥-|
①口口⑧ |⑦-⑧-|
17
口①①口 |①-②-|
⑤②②⑤ |③-④-|
口③③口 |⑤---|
口④④口 |----|
18
②③口口 |①-②-|
口⑥⑤④ |③---|
口①①口 |④-⑤-|
口口口口 |⑥---|
19
口口口口 |①-②-|
口口口口 |③-④-|
⑤②⑦④ |⑤-⑥-|
①⑥③⑧ |⑦-⑧-|
20
口⑦口口 |--①-|
⑤口⑥口 |②-③-|
口③口④ |④-⑤-|
①口②口 |⑥-⑦-|
21
口口口① |①-②-|
口②⑧③ |③-④-|
④口⑤口 |⑤-⑥-|
口⑥口⑦ |⑦-⑧-|
22
口①口口 |--①-|
口口口② |--②-|
口③④⑤ |③-④-|
口口口口 |⑤---|
23
①口口口 |--①-|
③口②口 |②-③-|
⑤口④口 |④-⑤-|
⑦口⑥口 |⑥-⑦-|
24
口⑦口⑥ |--①-|
口⑤口④ |②-③-|
口③口② |④-⑤-|
口①口口 |⑥-⑦-|
25
①口②口 |①-②-|
③口④口 |③-④-|
⑤口⑥口 |⑤-⑥-|
⑦口口口 |⑦---|
26
口③口① |①---|
④口②口 |②---|
口③口① |③---|
④口②口 |④---|
27
①口①口 |①---|
口②口② |②---|
③口③口 |③---|
口④口④ |④---|
28
口②口④ |①---|
①口③口 |②---|
口②口④ |③---|
①口③口 |④---|
29
口口口口 |①---|
口口口口 |----|
①口①口 |----|
口口口口 |----|
30
口④口④ |①---|
③口③口 |②---|
口②口② |③---|
①口①口 |④---|
31
④口②口 |①---|
口③口① |②---|
④口②口 |③---|
口③口① |④---|
32
口①②口 |--①-|
③口口④ |②---|
口①②口 |③-④-|
③口口④ |----|
33
⑦⑤⑥⑧ |①-②-|
③①②④ |③-④-|
⑦⑤⑥⑧ |⑤-⑥-|
③①②④ |⑦-⑧-|
34
④⑥⑤口 |①-②-|
口②③① |③---|
口⑤⑥④ |④-⑤-|
①③②口 |⑥---|
35
④口口⑤ |①-②-|
口②③① |③-④-|
⑤口口④ |⑤---|
①③②口 |----|
36
⑥⑤④③ |--①-|
②①①口 |--②-|
口口口口 |③-④-|
口口口口 |⑤-⑥-|
37
口口口口 |①-②-|
口⑤口口 |③-④-|
①②③④ |⑤---|
口口口口 |----|
38
④⑥⑤口 |①-②-|
口②③① |③---|
口⑤⑥④ |④-⑤-|
①③②口 |⑥---|
39
④口口⑤ |①-②-|
口②③① |③-④-|
⑤口口④ |⑤---|
①③②口 |----|
40
⑦⑥⑤④ |--①-|
③②①口 |②-③-|
口口口口 |④-⑤-|
口口口口 |⑥-⑦-|
41
口口口口 |①-②-|
口⑦⑦口 |③-④-|
①②③④ |⑤---|
⑤⑥⑥口 |⑥-⑦-|
42
①口口① |①---|
口②②口 |----|
口③③口 |②---|
口口口口 |③---|
43
口口口口 |①---|
②口口③ |----|
②口口③ |②---|
口①①口 |③---|
44
②②①① |①---|
口口口口 |②---|
口口口口 |③---|
③③④④ |④---|
45
口口口口 |①---|
④③②① |②---|
④③②① |③---|
口口口口 |④---|
46
①口口① |①---|
口③③口 |②---|
口④④口 |③-④-|
②⑤⑤② |⑤---|
47
①①②② |①-②-|
口⑤⑤口 |③---|
④⑤⑤④ |④---|
③口口③ |⑤---|
48
①口口① |①---|
口③③口 |②---|
口④④口 |③-④-|
②⑤⑤② |⑤---|
49
①①②② |①-②-|
口⑤⑤口 |③---|
④⑤⑤④ |④---|
③口口③ |⑤---|

不確定度: 0

最終更新:2014年12月12日 01:19