black bullet
fripSide

BASIC

Level: 3
BPM: 155
Notes: 202

1
口口口口 |----|
口口口口 |----|
口口口口 |----|
口口口口 |----|
2
口口口口 |①---|
口①口口 |----|
口②口口 |②---|
口口口口 |----|
3
③口口③ |①---|
口口②口 |----|
口口①口 |②---|
口口口口 |--③-|
4
口口口口 |----|
①口口① |--①-|
②口口② |----|
口口口口 |--②-|
5
口口口口 |----|
口口口口 |--①-|
口②②口 |----|
①口口① |②---|
6
②③④口 |①---|
口①①口 |--②-|
口口口口 |--③-|
口口口口 |--④-|
7
口口口① |--①-|
口口口② |--②-|
口③③口 |----|
口口口口 |③---|
8
②③④口 |①---|
口①①口 |--②-|
口口口口 |--③-|
口口口口 |--④-|
9
口口口① |--①-|
口口口② |--②-|
口③③口 |----|
口口口口 |③---|
10
口口②口 |①---|
口口①口 |----|
口口口口 |②---|
口口口口 |----|
11
口②口口 |①---|
口①口口 |----|
口口口口 |②---|
口口口口 |----|
12
口口口口 |①---|
口口②口 |----|
口口①口 |②---|
口口口口 |----|
13
口口口口 |①---|
口②口口 |----|
口①口口 |②---|
口口口口 |----|
14
口口口口 |①---|
口口口口 |----|
口口②口 |②---|
口口①口 |----|
15
口口口口 |①---|
口口口口 |----|
口②口口 |②---|
口①口口 |----|
16
口口口口 |①---|
②口口① |----|
口口口口 |②---|
口口口口 |----|
17
口口口口 |①---|
口口口口 |----|
②口口① |②---|
口口口口 |----|
18
①②③口 |①---|
口口口口 |②---|
口口口口 |③---|
口口口口 |----|
19
口口口口 |①---|
口③②① |②---|
口口口口 |③---|
口口口口 |----|
20
口口口口 |①---|
口口口口 |②---|
①②③口 |③---|
口口口口 |----|
21
口口口口 |①---|
口口口口 |②---|
口口口口 |③---|
口③②① |----|
22
口口口口 |①---|
③口口口 |②---|
②口口口 |③---|
①口口口 |----|
23
口口口口 |①---|
口口口③ |②---|
口口口② |③---|
口口口① |----|
24
口口口口 |①---|
口口口口 |----|
口口口口 |②---|
口②①口 |----|
25
口口口口 |①---|
口②②口 |----|
口①①口 |②---|
口口口口 |----|
26
①口口口 |①---|
口②口口 |----|
口口口口 |②---|
口口口口 |----|
27
口口①口 |①---|
口口口② |----|
口口口口 |②---|
口口口口 |----|
28
口口口口 |①---|
口口口口 |----|
①口口口 |②---|
口②口口 |----|
29
口口口口 |①---|
口口口口 |----|
口口①口 |②---|
口口口② |----|
30
口口口口 |①---|
口口②② |----|
口口①口 |②---|
口口口口 |----|
31
口口口口 |①---|
②②口口 |----|
口①口口 |②---|
口口口口 |----|
32
口口口口 |①---|
口②②口 |----|
口①①口 |②---|
口口口口 |----|
33
①①①① |①---|
口口口口 |----|
口口口口 |----|
口口口口 |----|
34
口口口口 |①---|
口口口口 |②---|
①②③④ |③---|
口口口口 |④---|
35
②②①① |①---|
口③③口 |②---|
口口口口 |③---|
口口口口 |----|
36
口口口口 |①---|
口口口口 |②---|
④③②① |③---|
口口口口 |④---|
37
①①②② |①---|
口③③口 |②---|
口口口口 |③---|
口口口口 |----|
38
口口口口 |①---|
口口口口 |②---|
口口口口 |③---|
①②③④ |④---|
39
口口口口 |①---|
②②①① |②---|
口③③口 |③---|
口口口口 |----|
40
口口口口 |①---|
②口口② |----|
①口口① |②---|
口口口口 |----|
41
口①①口 |①---|
口②②口 |②---|
口③③口 |③---|
口口口口 |----|
42
口口口口 |①---|
口口口口 |②---|
①②③④ |③---|
口口口口 |④---|
43
②②①① |①---|
口③③口 |②---|
口口口口 |③---|
口口口口 |----|
44
口口口口 |①---|
口口口口 |②---|
④③②① |③---|
口口口口 |④---|
45
①①②② |①---|
口③③口 |②---|
口口口口 |③---|
口口口口 |----|
46
口口口口 |①---|
口口口口 |②---|
口口口口 |③---|
①②③④ |④---|
47
口口口口 |①---|
②②①① |②---|
口③③口 |③---|
口口口口 |----|
48
口口口口 |①---|
②口口② |----|
①口口① |②---|
口口口口 |----|
49
口①①口 |①---|
口②②口 |②---|
口③③口 |③---|
口口口口 |----|
50
口口口口 |①---|
②口口② |----|
①口口① |②---|
口口口口 |----|
51
①①①① |①---|
口口口口 |----|
口口口口 |----|
口口口口 |----|
52
②③④口 |①---|
口①①口 |--②-|
口口口口 |--③-|
口口口口 |--④-|
53
口口口① |--①-|
口口口② |--②-|
口③③口 |----|
口口口口 |③---|
54
②③④口 |①---|
口①①口 |--②-|
口口口口 |--③-|
口口口口 |--④-|
55
口口口① |--①-|
口口口② |--②-|
口③③口 |----|
口口口口 |③---|
56
口①①口 |----|
口口口口 |①---|
口口口口 |----|
口口口口 |----|

不確定度: 0

最終更新:2014年12月12日 01:09