yellow head joe
S-C-U

BASIC

Level: 7
BPM: 187
Notes: 513

1
口口口口 |----|
口口口口 |----|
口口口口 |----|
口口口口 |----|
2
口口口③ |----|
口口②③ |----|
③①口口 |①-②-|
③口口口 |--③-|
3
口口口口 |--①-|
⑤口口口 |②-③-|
口口③④ |④---|
口口①② |--⑤-|
4
②③口⑥ |①-②-|
口①⑤⑥ |③---|
⑥④口口 |④-⑤-|
⑥口口口 |--⑥-|
5
④⑤口口 |--①②|
口⑥口口 |③-④-|
口口口③ |⑤-⑥-|
⑧①⑦② |--⑦⑧|
6
口口口口 |①-②-|
口口口口 |③-④-|
①口④③
口口口②

口口口⑦
口口⑥⑦
⑦⑤口口 |⑤-⑥-|
⑦口口口 |--⑦-|
7
口口口口 |--①-|
⑤口口口 |②-③-|
口口③④ |④---|
口口①② |--⑤-|
8
②③口⑥ |①-②-|
口①⑤⑥ |③---|
⑥④口口 |④-⑤-|
⑥口口口 |--⑥-|
9
④⑤口口 |--①②|
口⑥口口 |③-④-|
口口口③ |⑤-⑥-|
⑧①⑦② |--⑦⑧|
10
口口口口 |①-②-|
口口⑥口 |③-④-|
①⑤④③ |⑤-⑥-|
口口口② |----|
11
口④口口 |-①--|
口口口② |②--③|
③口⑤口 |--④-|
口口①口 |-⑤--|
12
口④口口 |①--②|
口⑥口② |--③-|
③口⑤口 |-④--|
口口①口 |⑤-⑥-|
13
口④口口 |-①--|
口口口② |②--③|
③口⑤口 |--④-|
口口①口 |-⑤--|
14
口④口口 |①--②|
口⑥口② |--③-|
③口⑤口 |-④--|
口口①口 |⑤-⑥-|
15
口口②口 |-①--|
④口口口 |②--③|
口口⑤① |--④-|
口③口口 |-⑤--|
16
口口②口 |①--②|
④⑥口口 |--③-|
口口⑤① |-④--|
口③口口 |⑤-⑥-|
17
口②③口 |-①--|
④口⑤① |②--③|
②口口③ |--④-|
口④①⑤ |-⑤--|
18
①④④② |①--②|
⑥③口口 |--③-|
口①②口 |-④--|
③口口⑤ |⑤-⑥-|
19
口④口口 |-①--|
口口口② |②--③|
③口⑤口 |--④-|
口口①口 |-⑤--|
20
口④口口 |①--②|
口⑥口② |--③-|
③口⑤口 |-④--|
口口①口 |⑤-⑥-|
21
口④口口 |-①--|
口口口② |②--③|
③口⑤口 |--④-|
口口①口 |-⑤--|
22
口④口口 |①--②|
口⑥口② |--③-|
③口⑤口 |-④--|
口口①口 |⑤-⑥-|
23
口口②口 |-①--|
④口口口 |②--③|
口口⑤① |--④-|
口③口口 |-⑤--|
24
口口②口 |①--②|
④⑥口口 |--③-|
口口⑤① |-④--|
口③口口 |⑤-⑥-|
25
口②③口 |-①--|
④口⑤① |②--③|
②口口③ |--④-|
口④①⑤ |-⑤--|
26
①④④② |①--②|
⑥③口口 |--③-|
口①②口 |-④--|
③口口⑤ |⑤-⑥-|
27
口口口⑤ |①-②-|
⑦口口④ |③-④-|
⑥口②③ |⑤---|
口口①口 |⑥-⑦-|
28
口⑤口④ |--①-|
口⑦⑥③ |②-③-|
口口②口 |④-⑤-|
口口①口 |⑥-⑦-|
29
⑤口①⑦ |①-②-|
口口口⑥ |③-④-|
口②④口 |--⑤-|
口口③口 |⑥-⑦-|
30
口③⑤口 |①-②-|
①⑥④口 |--③-|
口口口② |④-⑤-|
口口口⑦ |⑥-⑦-|
31
口口口⑤ |①-②-|
⑦口口④ |③-④-|
⑥口②③ |⑤---|
口口①口 |⑥-⑦-|
32
口口口④ |--①-|
口口⑦③ |②-③-|
口⑥②口 |④-⑤-|
口⑤①口 |⑥-⑦-|
33
①口口口 |①--②|
口口口口 |--③-|
口口口口
③口口②

⑥口口⑤
口口口口
口口④口 |④--⑤|
口口口口 |--⑥-|
34
口④⑤口 |①--②|
口⑥①口 |--③-|
口口口口 |④-⑤-|
②口口③ |⑥---|
35
口口口⑤ |①-②-|
⑦口口④ |③-④-|
⑥口②③ |⑤---|
口口①口 |⑥-⑦-|
36
口⑤口④ |--①-|
口⑥口③ |②-③-|
口⑦②口 |④-⑤-|
口口①口 |⑥-⑦-|
37
①口⑤⑥ |①-②-|
②口口⑦ |③-④-|
③口口口 |--⑤-|
④口口口 |⑥-⑦-|
38
④③口口 |①-②-|
⑤口口口 |--③-|
⑥口口① |④-⑤-|
⑦口口② |⑥-⑦-|
39
口⑥⑦⑤ |①-②-|
口口口④ |③-④-|
口口②③ |⑤---|
口口①口 |⑥-⑦-|
40
⑧⑧口口 |①-②-|
⑥⑥口口 |③-④-|
④④⑤⑦ |⑤-⑥-|
②②③① |⑦-⑧-|
41
口口口口 |①-②-|
④④①① |--③-|
口⑤⑤口 |--④-|
③③②② |--⑤-|
42
①口口② |--①-|
口④⑤③ |②---|
①口口② |--③-|
口口口口 |④-⑤-|
43
①②③口 |①--②|
口口口口 |--③-|
④⑥⑤口 |--④-|
口口口口 |⑤-⑥-|
44
口口口口 |①--②|
口⑤⑥④ |--③-|
口口口口 |--④-|
口③②① |⑤-⑥-|
45
①口⑥② |①--②|
⑤口口口 |--③-|
口口④口 |--④-|
③口口口 |⑤-⑥-|
46
口口口口 |①-②-|
口⑧口⑥ |③-④-|
⑦④⑤② |⑤-⑥-|
③口①口 |⑦-⑧-|
47
①②③口 |①--②|
口口口口 |--③-|
④⑥⑤口 |--④-|
口口口口 |⑤-⑥-|
48
口口口口 |①--②|
口⑤⑥④ |--③-|
口口口口 |--④-|
口③②① |⑤-⑥-|
49
①⑥⑤② |①--②|
⑥口口⑤ |--③-|
口口口口 |-④--|
④口口③ |⑤--⑥|
50
口口口口 |--①-|
口④⑤③ |-②--|
①口口② |--③-|
口①②口 |④-⑤-|
51
①②③口 |①--②|
口口口口 |--③-|
④⑥⑤口 |--④-|
口口口口 |⑤-⑥-|
52
口口口口 |①--②|
口⑤⑥④ |--③-|
口口口口 |--④-|
口③②① |⑤-⑥-|
53
①口⑥② |①--②|
⑤口口口 |--③-|
口口④口 |--④-|
③口口口 |⑤-⑥-|
54
口口口口 |①-②-|
口⑧口⑥ |③-④-|
⑦④⑤② |⑤-⑥-|
③口①口 |⑦-⑧-|
55
口①②③ |①--②|
口口口口 |--③-|
口⑥口口 |--④-|
口⑤④口 |⑤-⑥-|
56
口①②③ |①--②|
口口口口 |--③-|
口⑥口口 |--④-|
口⑤④口 |⑤-⑥-|
57
口①口② |①--②|
③口④口 |--③-|
口⑤口⑥ |-④--|
口口口口 |⑤--⑥|
58
口口口口 |----|
口口口口 |----|
口口口口 |----|
口口口口 |----|
59
口⑤口口 |①②--|
口口①③ |③--④|
④①⑥口 |--⑤-|
口口②口 |-⑥--|
60
口④口口 |①--②|
口⑥口② |--③-|
③口⑤口 |-④--|
口口①口 |⑤-⑥-|
61
口⑤口口 |①②--|
口口①③ |③--④|
④①⑥口 |--⑤-|
口口②口 |-⑥--|
62
口④口口 |①--②|
口⑥①② |--③-|
③①⑤口 |-④--|
口口①口 |⑤-⑥-|
63
口口③口 |①②--|
⑤口①口 |③--④|
口①⑥② |--⑤-|
口④口口 |-⑥--|
64
口口②口 |①--②|
④⑥口口 |--③-|
口口⑤① |-④--|
口③口口 |⑤-⑥-|
65
口②③口 |-①--|
④口⑤① |②--③|
②口口③ |--④-|
口④①⑤ |-⑤--|
66
①④④② |①--②|
⑥③口口 |--③-|
口①②口 |-④--|
③口口⑤ |⑤-⑥-|
67
口⑤口口 |①②--|
口口①③ |③--④|
④①⑥口 |--⑤-|
口口②口 |-⑥--|
68
口④口口 |①--②|
口⑥口② |--③-|
③口⑤口 |-④--|
口口①口 |⑤-⑥-|
69
口⑤口口 |①②--|
口口①③ |③--④|
④①⑥口 |--⑤-|
口口②口 |-⑥--|
70
口④口口 |①--②|
口⑥口② |--③-|
③口⑤口 |-④--|
口口①口 |⑤-⑥-|
71
口口③口 |①②--|
⑤口①口 |③--④|
口①⑥② |--⑤-|
口④口口 |-⑥--|
72
口口②口 |①--②|
④⑥①口 |--③-|
口①⑤① |-④--|
口③口口 |⑤-⑥-|
73
口②③口 |-①--|
④口⑤① |②--③|
②口口③ |--④-|
口④①⑤ |-⑤--|
74
①口口② |①--②|
口③口口 |--③-|
口①②口
③口口口

⑥④④口
⑥口口⑤
⑥口口⑤ |-④--|
口口口⑤ |⑤-⑥-|


不确定度: 0

タグ:

+ タグ編集
  • タグ:

このサイトはreCAPTCHAによって保護されており、Googleの プライバシーポリシー利用規約 が適用されます。

最終更新:2012年11月08日 18:42