black bullet
fripSide

ADVANCED

Level: 5
BPM: 155
Notes: 311

1
口口口口 |----|
口口口口 |----|
口口口口 |----|
口口口口 |----|
2
口口口口 |①---|
口②①口 |--②-|
口口口③ |----|
口口口③ |--③-|
3
口口口口 |----|
口口口口 |--①-|
口②①口 |----|
口②①口 |--②-|
4
②口口口 |----|
口口口口 |--①-|
①口口口 |----|
①口口口 |--②-|
5
口①②口 |--①-|
口④③口 |--②-|
口口口口 |--③-|
口口口口 |④---|
6
口口②② |①---|
口口口口 |--②-|
口①①口
口口口口

口口口口
口口③③
口口④④ |--③-|
口口口口 |--④-|
7
④口口③ |--①-|
④口口③ |--②-|
口口口口 |--③-|
②②①① |④---|
8
口口②② |①---|
口口口口 |--②-|
口①①口
口口口口

口口口口
口口③③
口口④④ |--③-|
口口口口 |--④-|
9
④口口③ |--①-|
④口口③ |--②-|
口口口口 |--③-|
②②①① |④---|
10
口口口口 |①---|
③口口③ |②---|
口②①口 |③---|
口口口口 |----|
11
口①②口 |①---|
口口口口 |②---|
③口口③ |③---|
口口口口 |----|
12
口口③③ |①---|
①②口口 |②---|
口口口口 |③---|
口口口口 |----|
13
口口口口 |①---|
③③口口 |②---|
口口②① |③---|
口口口口 |----|
14
口口①口 |①---|
口口②口 |②---|
口③③口 |③---|
口口口口 |----|
15
口①口口 |①---|
口②口口 |②---|
口③③口 |③---|
口口口口 |----|
16
口口口口 |①---|
口口④② |②---|
口口③① |③---|
口口口口 |④---|
17
③③口口 |①---|
②②口口 |②---|
①①口口 |③---|
口口口口 |----|
18
口口口④ |①---|
口口③③ |②---|
口②口口 |③---|
①口口口 |④---|
19
口②①口 |①---|
口③③口 |②---|
口④口口 |③---|
口口口口 |④---|
20
口口口口 |①---|
口④③③ |②---|
口口口② |③---|
口口①口 |④---|
21
口口口口 |①---|
①口口口 |②---|
②口口④ |③---|
口③③口 |④---|
22
口口②口 |①---|
③③④① |②---|
口口口口 |③---|
口口口口 |④---|
23
口口口口 |①---|
口口口① |②---|
口口口② |③---|
④③③口 |④---|
24
口口口口 |①---|
②④口口 |②---|
①③口口 |③---|
口口口口 |④---|
25
口口③③ |①---|
口口②② |②---|
口口①① |③---|
口口口口 |----|
26
口口口口 |①---|
口②①口 |----|
口①②口 |②---|
口口口口 |----|
27
①口口① |①---|
②口口② |②---|
③口口③ |③---|
口口口口 |----|
28
口口口口 |①---|
口①②口 |----|
口②①口 |②---|
口口口口 |----|
29
口口口口 |①---|
③口口③ |②---|
②口口② |③---|
①口口① |----|
30
口口口口 |①---|
口②①口 |----|
口①②口 |②---|
口口口口 |----|
31
②口口① |①---|
口口口口 |----|
口口口口 |②---|
①口口② |----|
32
口①①① |①---|
口口口口 |----|
口口口口 |②---|
②②②口 |----|
33
①①①① |①---|
口②②口 |--②-|
④②②口 |----|
③口口口 |③-④-|
34
口口口口 |①---|
①口口④ |②-③-|
口口口③ |④---|
口⑤⑥② |⑤-⑥-|
35
口口口④ |①-②-|
③口口口 |③-④-|
口口口②
①口口口

口口口口
口⑤⑤口
口口口⑦ |⑤---|
口口口⑥ |⑥-⑦-|
36
口口口口 |①---|
④口口① |②-③-|
③口口口 |④---|
②⑥⑤口 |⑤-⑥-|
37
④口口口 |①-②-|
口口口③ |③-④-|
②口口口
口口口①

口口口口
口⑤⑤口
⑦口口口 |⑤---|
⑥口口口 |⑥-⑦-|
38
口口口口 |①---|
①口口④ |②-③-|
口口口③ |④---|
口⑤⑥② |⑤-⑥-|
39
口口口④ |①-②-|
③⑤⑤口 |③-④-|
口口口② |⑤---|
①口口口 |----|
40
口口口口 |①---|
口口口口 |----|
口②②口 |②---|
口①①口 |----|
41
口①①口 |①---|
口口口口 |----|
④②②口 |②---|
③口口口 |③-④-|
42
口口口口 |①---|
①口口④ |②-③-|
口口口③ |④---|
口⑤⑥② |⑤-⑥-|
43
口口口④ |①-②-|
③口口口 |③-④-|
口口口②
①口口口

口口口口
口⑤⑤口
口口口⑦ |⑤---|
口口口⑥ |⑥-⑦-|
44
口口口口 |①---|
④口口① |②-③-|
③口口口 |④---|
②⑥⑤口 |⑤-⑥-|
45
④口口口 |①-②-|
口口口③ |③-④-|
②口口口
口口口①

口口口口
口⑤⑤口
⑦口口口 |⑤---|
⑥口口口 |⑥-⑦-|
46
口口口口 |①---|
①口口④ |②-③-|
口口口③ |④---|
口⑤⑥② |⑤-⑥-|
47
口口口④ |①-②-|
③⑤⑤口 |③-④-|
口口口② |⑤---|
①口口口 |----|
48
口①①口 |①---|
口口口口 |----|
口②②口 |②---|
口口口口 |----|
49
口①①口 |①---|
口①①口 |----|
②②②② |②---|
口口口口 |----|
50
口口口口 |①---|
口口口口 |----|
口②②口 |②---|
口①①口 |----|
51
①①①① |①---|
口口口口 |----|
口口口口 |----|
口口口口 |----|
52
口口②② |①---|
口口口口 |--②-|
口①①口
口口口口

口口口口
口口③③
口口④④ |--③-|
口口口口 |--④-|
53
④口口③ |--①-|
④口口③ |--②-|
口口口口 |--③-|
②②①① |④---|
54
口口②② |①---|
口口口口 |--②-|
口①①口
口口口口

口口口口
口口③③
口口④④ |--③-|
口口口口 |--④-|
55
④口口③ |--①-|
④口口③ |--②-|
口口口口 |--③-|
②②①① |④---|
56
口口口口 |----|
口①①口 |①---|
口①①口 |----|
口口口口 |----|

不確定度: 0

最終更新:2014年12月12日 01:09